<svg xmlns="http://www.w3.org/2000/svg" xml:space="preserve" width="87" height="25" version="1.0" viewBox="0 0 187.333 86.43"><font horiz-adv-x="1000"><font-face font-family="MyriadPro-Regular" underline-position="-100" underline-thickness="50"/><glyph d="M424 212 496 0h93L359 674H254L25 0h90l70 212m18 68 66 195c13 41 24 82 34 122h2c10-39 20-79 35-123l66-194z" horiz-adv-x="612" unicode="A"/><glyph d="m89 0 108 238h207L434 0h321l1 73H509l-30 241h240v72H468l-26 215h287v73H307L-1 0m227 308 87 197c15 36 31 74 43 106h4c2-34 8-77 12-109l22-194z" horiz-adv-x="788" unicode="Æ"/><glyph d="m89 0 108 238h207L434 0h321l1 73H509l-30 241h240v72H468l-26 215h287v73H307L-1 0m227 308 87 197c15 36 31 74 43 106h4c2-34 8-77 12-109l22-194m94 519-93-117h72l127 117z" horiz-adv-x="788" unicode="Ǽ"/><glyph d="M424 212 496 0h93L359 674H254L25 0h90l70 212m18 68 66 195c13 41 24 82 34 122h2c10-39 20-79 35-123l66-194m-58 547-93-117h72l127 117z" horiz-adv-x="612" unicode="Á"/><glyph d="M424 212 496 0h93L359 674H254L25 0h90l70 212m18 68 66 195c13 41 24 82 34 122h2c10-39 20-79 35-123l66-194M181 817c2-60 38-106 123-106 86 0 123 47 125 106h-51c-5-26-24-49-73-49s-67 26-72 49z" horiz-adv-x="612" unicode="Ă"/><glyph d="M424 212 496 0h93L359 674H254L25 0h90l70 212m18 68 66 195c13 41 24 82 34 122h2c10-39 20-79 35-123l66-194M277 824 174 710h71l64 69h2l64-69h73L344 824z" horiz-adv-x="612" unicode="Â"/><glyph d="M424 212 496 0h93L359 674H254L25 0h90l70 212m18 68 66 195c13 41 24 82 34 122h2c10-39 20-79 35-123l66-194M218 719c29 0 48 23 48 51s-20 50-48 50-49-23-49-50c0-28 19-51 48-51m186 0c30 0 49 23 49 51s-20 50-48 50c-29 0-50-23-50-50 0-28 20-51 48-51z" horiz-adv-x="612" unicode="Ä"/><glyph d="M424 212 496 0h93L359 674H254L25 0h90l70 212m18 68 66 195c13 41 24 82 34 122h2c10-39 20-79 35-123l66-194M161 827l127-116h72l-93 116z" horiz-adv-x="612" unicode="À"/><glyph d="M424 212 496 0h93L359 674H254L25 0h90l70 212m18 68 66 195c13 41 24 82 34 122h2c10-39 20-79 35-123l66-194z" horiz-adv-x="612" unicode="Α"/><glyph d="M427 212 499 0h93L362 674H257L28 0h90l70 212m18 68 66 195c13 41 24 82 34 122h2c10-39 20-79 35-123l66-194M70 674l-8-155h52l35 155z" horiz-adv-x="615" unicode="Ά"/><glyph d="M424 212 496 0h93L359 674H254L25 0h90l70 212m18 68 66 195c13 41 24 82 34 122h2c10-39 20-79 35-123l66-194M185 788v-55h239v55z" horiz-adv-x="612" unicode="Ā"/><glyph d="M359 674H254L25 0h90l70 212h239L495 4c-24-27-59-74-59-123 0-56 37-86 93-86 25 0 60 7 81 23l-14 45c-12-6-28-10-45-10-30 0-51 20-51 52 0 36 37 77 53 93l36 2M203 280l66 195c13 41 24 82 34 122h2c10-39 20-79 35-123l66-194z" horiz-adv-x="612" unicode="Ą"/><glyph d="M424 212 496 0h93L359 674H254L25 0h90l70 212m18 68 66 195c13 41 24 82 34 122h2c10-39 20-79 35-123l66-194m-97 599c-62 0-101-41-101-91 0-49 40-88 101-88 58 0 99 38 99 88 0 51-38 91-98 91m-3-37c30 0 49-24 49-53s-19-52-49-52c-28 0-47 25-47 51 0 29 17 54 46 54z" horiz-adv-x="612" unicode="Å"/><glyph d="M424 212 496 0h93L359 674H254L25 0h90l70 212m18 68 66 195c13 41 24 82 34 122h2c10-39 20-79 35-123l66-194M233 715c2 27 10 44 26 44 14 0 28-9 47-19 22-11 40-19 61-19 46 0 68 34 67 97h-46c-3-32-12-39-27-39-16 0-32 9-48 18-21 11-37 20-59 20-44 0-70-41-68-102z" horiz-adv-x="612" unicode="Ã"/><glyph d="M76 2c29-4 75-8 135-8 110 0 186 20 233 63 34 33 57 77 57 135 0 100-75 153-139 169v2c71 26 114 83 114 148 0 53-21 93-56 119-42 34-98 49-185 49-61 0-121-6-159-14m87-59c14 3 37 6 77 6 88 0 148-31 148-110 0-65-54-113-146-113h-79m0-66h72c95 0 174-38 174-130 0-98-83-131-173-131-31 0-56 1-73 4z" horiz-adv-x="542" unicode="B"/><glyph d="M76 2c29-4 75-8 135-8 110 0 186 20 233 63 34 33 57 77 57 135 0 100-75 153-139 169v2c71 26 114 83 114 148 0 53-21 93-56 119-42 34-98 49-185 49-61 0-121-6-159-14m87-59c14 3 37 6 77 6 88 0 148-31 148-110 0-65-54-113-146-113h-79m0-66h72c95 0 174-38 174-130 0-98-83-131-173-131-31 0-56 1-73 4z" horiz-adv-x="542" unicode="Β"/><glyph d="M529 91c-35-17-89-28-142-28-164 0-259 106-259 271 0 177 105 278 263 278 56 0 103-12 136-28l21 71c-23 12-76 30-160 30-209 0-352-143-352-354C36 110 179-11 369-11c82 0 146 17 178 33z" horiz-adv-x="580" unicode="C"/><glyph d="M529 91c-35-17-89-28-142-28-164 0-259 106-259 271 0 177 105 278 263 278 56 0 103-12 136-28l21 71c-23 12-76 30-160 30-209 0-352-143-352-354C36 110 179-11 369-11c82 0 146 17 178 33M400 829l-93-117h72l127 117z" horiz-adv-x="580" unicode="Ć"/><glyph d="M529 91c-35-17-89-28-142-28-164 0-259 106-259 271 0 177 105 278 263 278 56 0 103-12 136-28l21 71c-23 12-76 30-160 30-209 0-352-143-352-354C36 110 179-11 369-11c82 0 146 17 178 33M386 713l103 114h-72l-63-69h-2l-64 69h-74l105-114z" horiz-adv-x="580" unicode="Č"/><glyph d="M529 91c-35-17-89-28-142-28-164 0-259 106-259 271 0 177 105 278 263 278 56 0 103-12 136-28l21 71c-23 12-76 30-160 30-209 0-352-143-352-354C36 128 155 12 319-7l-42-77c47-5 78-16 78-42 0-22-20-31-43-31-20 0-40 5-55 13l-14-45c17-10 45-17 71-17 52 0 103 23 103 81 0 41-33 68-70 75l24 40c84 1 145 16 176 32z" horiz-adv-x="585" unicode="Ç"/><glyph d="M529 91c-35-17-89-28-142-28-164 0-259 106-259 271 0 177 105 278 263 278 56 0 103-12 136-28l21 71c-23 12-76 30-160 30-209 0-352-143-352-354C36 110 179-11 369-11c82 0 146 17 178 33M314 828 211 714h71l64 69h2l64-69h73L381 828z" horiz-adv-x="580" unicode="Ĉ"/><glyph d="M529 91c-35-17-89-28-142-28-164 0-259 106-259 271 0 177 105 278 263 278 56 0 103-12 136-28l21 71c-23 12-76 30-160 30-209 0-352-143-352-354C36 110 179-11 369-11c82 0 146 17 178 33M348 719c28 0 49 25 49 51s-21 50-48 50c-29 0-51-24-51-50s22-51 49-51z" horiz-adv-x="580" unicode="Ċ"/><glyph d="M546 0 336 346l205 328H441l-92-158c-25-43-42-74-61-114h-3c-18 36-37 70-62 114l-89 158H33l198-333L25 0h100l81 148c35 59 54 95 73 134h2c21-39 43-76 78-133L445 0z" horiz-adv-x="571" unicode="Χ"/><glyph d="M76 2c44-5 96-8 158-8 131 0 235 34 298 97 63 62 97 152 97 262 0 109-35 187-95 242-59 55-148 84-273 84-69 0-132-6-185-14m87-64c23 5 57 9 102 9 184 0 274-101 273-260 0-182-101-286-287-286-34 0-66 1-88 5z" horiz-adv-x="666" unicode="D"/><glyph d="M76 2c44-5 96-8 158-8 131 0 235 34 298 97 63 62 97 152 97 262 0 109-35 187-95 242-59 55-148 84-273 84-69 0-132-6-185-14m87-64c23 5 57 9 102 9 184 0 274-101 273-260 0-182-101-286-287-286-34 0-66 1-88 5m179 643 103 114h-72l-63-69h-2l-64 69h-74l105-114z" horiz-adv-x="666" unicode="Ď"/><glyph d="M-2 307h83V0c44-5 95-7 158-7 130 0 235 34 298 97s97 152 97 263-35 190-95 245c-59 55-149 84-273 84-69 0-132-6-185-15V377H-2m350 0H168v226c23 5 57 9 102 9 184 0 274-99 273-260 0-186-100-289-288-289-33 0-65 1-87 4v240h180z" horiz-adv-x="671" unicode="Đ"/><glyph d="M544 0v50L335 656h-98L26 49V0m425 72H114l123 361c16 47 34 109 43 144h3c12-43 33-109 49-158z" horiz-adv-x="569" unicode="∆"/><glyph d="M425 388H163v213h277v73H76V0h379v73H163v243h262z" horiz-adv-x="492" unicode="E"/><glyph d="M425 388H163v213h277v73H76V0h379v73H163v243h262M302 827l-93-117h72l127 117z" horiz-adv-x="492" unicode="É"/><glyph d="M425 388H163v213h277v73H76V0h379v73H163v243h262M130 825c2-60 38-106 123-106 86 0 123 47 125 106h-51c-5-26-24-49-73-49s-67 26-72 49z" horiz-adv-x="492" unicode="Ĕ"/><glyph d="M425 388H163v213h277v73H76V0h379v73H163v243h262M291 710l103 114h-72l-63-69h-2l-64 69h-74l105-114z" horiz-adv-x="492" unicode="Ě"/><glyph d="M425 388H163v213h277v73H76V0h379v73H163v243h262M224 824 121 710h71l64 69h2l64-69h73L291 824z" horiz-adv-x="492" unicode="Ê"/><glyph d="M425 388H163v213h277v73H76V0h379v73H163v243h262M163 721c29 0 48 23 48 51s-20 50-48 50-49-23-49-50c0-28 19-51 48-51m186 0c30 0 49 23 49 51s-20 50-48 50c-29 0-50-23-50-50 0-28 20-51 48-51z" horiz-adv-x="492" unicode="Ë"/><glyph d="M425 388H163v213h277v73H76V0h379v73H163v243h262M251 721c28 0 49 25 49 51s-21 50-48 50c-29 0-51-24-51-50s22-51 49-51z" horiz-adv-x="492" unicode="Ė"/><glyph d="M425 388H163v213h277v73H76V0h379v73H163v243h262M119 827l127-116h72l-93 116z" horiz-adv-x="492" unicode="È"/><glyph d="M425 388H163v213h277v73H76V0h379v73H163v243h262M140 788v-55h239v55z" horiz-adv-x="492" unicode="Ē"/><glyph d="M158 0v288c0 112-2 193-7 278l3 1c34-73 79-150 126-225L498-6c-7-71-47-109-127-125l18-68c128 19 193 94 193 237v636h-82V392c0-105 2-187 10-277l-2-1c-32 69-71 140-121 219L171 674H76V0z" horiz-adv-x="658" unicode="Ŋ"/><glyph d="M447-138c-15-6-29-8-44-8-27 0-46 14-46 40 0 37 41 79 83 105 5 0 11 1 15 1v73H163v243h262v72H163v213h277v73H76V0h292c-36-24-80-71-80-125 0-52 35-81 92-81 30 0 57 7 80 21z" horiz-adv-x="492" unicode="Ę"/><glyph d="M425 388H163v213h277v73H76V0h379v73H163v243h262z" horiz-adv-x="492" unicode="Ε"/><glyph d="M494 388H233v213h277v73H145V0h380v73H233v243h261M7 674 0 519h52l35 155z" horiz-adv-x="561" unicode="Έ"/><glyph d="M76 674V0h87v316h326V0h88v674h-88V392H163v282z" horiz-adv-x="652" unicode="Η"/><glyph d="M145 674V0h88v316h325V0h88v674h-88V392H233v282M7 674 0 519h52l35 155z" horiz-adv-x="722" unicode="Ή"/><glyph d="M-2 307h83V0c44-5 95-7 158-7 130 0 235 34 298 97s97 152 97 263-35 190-95 245c-59 55-149 84-273 84-69 0-132-6-185-15V377H-2m350 0H168v226c23 5 57 9 102 9 184 0 274-99 273-260 0-186-100-289-288-289-33 0-65 1-87 4v240h180z" horiz-adv-x="671" unicode="Ð"/><glyph d="M479 94c-23-13-69-33-122-33-54 0-104 19-141 58-27 30-47 73-55 131h283v49H154v18c0 14 1 29 2 42h288v50H165c10 53 30 98 60 127 34 36 78 55 132 55 45 0 87-14 112-28l20 66c-28 15-74 32-133 32-82 0-147-30-198-83-40-41-70-99-82-169H10v-50h59c-1-14-2-29-2-45v-15H10v-49h62c9-72 34-130 72-172 50-58 122-89 203-89 66 0 118 21 149 42z" horiz-adv-x="513" unicode="€"/><glyph d="M466 83c-23-12-64-26-113-26-50 0-90 14-126 49-18 18-32 43-39 72h250v49H178c-1 12-1 21-1 30 0 7 1 18 2 29h259v48H189c5 31 21 58 41 78 35 34 79 48 123 48 48 0 81-12 104-24l20 62c-26 13-64 28-123 28-69 0-138-24-189-75-30-30-52-71-63-117H38v-48h57c-2-13-3-25-3-35 0-6 1-13 2-24H38v-49h63c9-47 31-89 61-119 48-48 113-70 179-70 61 0 114 18 137 33z" horiz-adv-x="530" unicode=""/><glyph d="M76 0h87v305h255v72H163v224h276v73H76z" horiz-adv-x="487" unicode="F"/><glyph d="M589 354H367v-70h137V83c-20-10-59-18-116-18-157 0-260 101-260 272 0 169 107 271 271 271 68 0 113-13 149-29l21 71c-29 14-90 31-168 31-226 0-364-147-365-348 0-105 36-195 94-251C196 19 280-7 382-7c91 0 168 23 207 37z" horiz-adv-x="646" unicode="G"/><glyph d="M589 354H367v-70h137V83c-20-10-59-18-116-18-157 0-260 101-260 272 0 169 107 271 271 271 68 0 113-13 149-29l21 71c-29 14-90 31-168 31-226 0-364-147-365-348 0-105 36-195 94-251C196 19 280-7 382-7c91 0 168 23 207 37M291 715c2 27 10 44 26 44 14 0 28-9 47-19 22-11 40-19 61-19 46 0 68 34 67 97h-46c-3-32-12-39-27-39-16 0-32 9-48 18-21 11-37 20-59 20-44 0-70-41-68-102z" horiz-adv-x="646" unicode=""/><glyph d="M76 674V0h87v601h274v73z" horiz-adv-x="451" unicode="Γ"/><glyph d="M589 354H367v-70h137V83c-20-10-59-18-116-18-157 0-260 101-260 272 0 169 107 271 271 271 68 0 113-13 149-29l21 71c-29 14-90 31-168 31-226 0-364-147-365-348 0-105 36-195 94-251C196 19 280-7 382-7c91 0 168 23 207 37M230 827c2-60 38-106 123-106 86 0 123 47 125 106h-51c-5-26-24-49-73-49s-67 26-72 49z" horiz-adv-x="646" unicode="Ğ"/><glyph d="M589 354H367v-70h137V83c-20-10-59-18-116-18-157 0-260 101-260 272 0 169 107 271 271 271 68 0 113-13 149-29l21 71c-29 14-90 31-168 31-226 0-364-147-365-348 0-105 36-195 94-251C196 19 280-7 382-7c91 0 168 23 207 37M326 827 223 713h71l64 69h2l64-69h73L393 827z" horiz-adv-x="646" unicode="Ĝ"/><glyph d="M589 354H367v-70h137V83c-20-10-59-18-116-18-157 0-260 101-260 272 0 169 107 271 271 271 68 0 113-13 149-29l21 71c-29 14-90 31-168 31-226 0-364-147-365-348 0-105 36-195 94-251C196 19 280-7 382-7c91 0 168 23 207 37M298-222c62 4 129 34 129 108 0 33-20 60-40 73l-65-14c18-14 34-37 34-60 0-40-36-59-75-66z" horiz-adv-x="646" unicode="Ģ"/><glyph d="M589 354H367v-70h137V83c-20-10-59-18-116-18-157 0-260 101-260 272 0 169 107 271 271 271 68 0 113-13 149-29l21 71c-29 14-90 31-168 31-226 0-364-147-365-348 0-105 36-195 94-251C196 19 280-7 382-7c91 0 168 23 207 37M362 719c28 0 49 25 49 51s-21 50-48 50c-29 0-51-24-51-50s22-51 49-51z" horiz-adv-x="646" unicode="Ġ"/><glyph d="M76 674V0h87v316h326V0h88v674h-88V392H163v282z" horiz-adv-x="652" unicode="H"/><glyph d="M636 479v58h-57v137h-88V537H165v137H78V537H21v-58h57V0h87v302h326V0h88v479m-88-102H165v102h326z" horiz-adv-x="657" unicode="Ħ"/><glyph d="M76 674V0h87v316h326V0h88v674h-88V392H163v282m130 150L190 710h71l64 69h2l64-69h73L360 824z" horiz-adv-x="652" unicode="Ĥ"/><glyph d="M76 674V0h87v674z" horiz-adv-x="239" unicode="I"/><glyph d="M76 674V0h87v674m290-444c0-132-46-167-124-167-29 0-55 6-73 13L243 5c22-9 61-16 93-16 116 0 204 55 204 234v451h-87z" horiz-adv-x="609" unicode="Ĳ"/><glyph d="M76 674V0h87v674m-3 153L67 710h72l127 117z" horiz-adv-x="239" unicode="Í"/><glyph d="M76 674V0h87v674M-4 823c2-60 38-106 123-106 86 0 123 47 125 106h-51c-5-26-24-49-73-49s-67 26-72 49z" horiz-adv-x="239" unicode="Ĭ"/><glyph d="M76 674V0h87v674M86 824-17 710h71l64 69h2l64-69h73L153 824z" horiz-adv-x="239" unicode="Î"/><glyph d="M76 674V0h87v674M28 721c29 0 48 23 48 51s-20 50-48 50-49-23-49-50c0-28 19-51 48-51m186 0c30 0 49 23 49 51s-20 50-48 50c-29 0-50-23-50-50 0-28 20-51 48-51z" horiz-adv-x="239" unicode="Ï"/><glyph d="M76 674V0h87v674m-42 47c28 0 49 25 49 51s-21 50-48 50c-29 0-51-24-51-50s22-51 49-51z" horiz-adv-x="239" unicode="İ"/><glyph d="M76 674V0h87v674M-25 827l127-116h72L81 827z" horiz-adv-x="239" unicode="Ì"/><glyph d="M76 674V0h87v674M1 788v-55h239v55z" horiz-adv-x="239" unicode="Ī"/><glyph d="M163 674H76V0C58-27 28-74 28-123c0-56 38-86 93-86 25 0 60 7 81 23l-14 45c-11-5-26-9-45-9-29 0-51 18-51 52 0 36 26 77 41 98h30z" horiz-adv-x="239" unicode="Į"/><glyph d="M76 674V0h87v674z" horiz-adv-x="239" unicode="Ι"/><glyph d="M28 711c28 0 48 24 48 50 0 29-21 51-48 51-28 0-50-23-50-51 0-26 20-50 49-50m184 0c29 0 49 24 49 50 0 29-21 51-48 51-29 0-50-23-50-51 0-26 20-50 48-50M76 674V0h87v674z" horiz-adv-x="239" unicode="Ϊ"/><glyph d="M145 674V0h88v674M7 674 0 519h52l35 155z" horiz-adv-x="309" unicode="Ί"/><glyph d="M76 674V0h87v674M43 715c2 27 10 44 26 44 14 0 28-9 47-19 22-11 40-19 61-19 46 0 68 34 67 97h-46c-3-32-12-39-27-39-16 0-32 9-48 18-21 11-37 20-59 20-44 0-70-41-68-102z" horiz-adv-x="239" unicode="Ĩ"/><glyph d="M214 230C214 98 168 63 90 63c-29 0-55 6-73 13L4 5c22-9 61-16 93-16 116 0 204 55 204 234v451h-87z" horiz-adv-x="370" unicode="J"/><glyph d="M214 230C214 98 168 63 90 63c-29 0-55 6-73 13L4 5c22-9 61-16 93-16 116 0 204 55 204 234v451h-87m6 150L117 710h71l64 69h2l64-69h73L287 824z" horiz-adv-x="370" unicode="Ĵ"/><glyph d="M76 0h87v257l64 74L449 0h103L289 388l244 286H425L219 421c-17-22-35-46-53-72h-3v325H76z" horiz-adv-x="542" unicode="K"/><glyph d="M76 0h87v257l64 74L449 0h103L289 388l244 286H425L219 421c-17-22-35-46-53-72h-3v325H76z" horiz-adv-x="542" unicode="Κ"/><glyph d="M76 0h87v257l64 74L449 0h103L289 388l244 286H425L219 421c-17-22-35-46-53-72h-3v325H76m139-894c62 4 129 34 129 108 0 33-20 60-40 73l-65-14c18-14 34-37 34-60 0-40-36-59-75-66z" horiz-adv-x="542" unicode="Ķ"/><glyph d="M76 0h375v73H163v601H76z" horiz-adv-x="472" unicode="L"/><glyph d="M76 0h375v73H163v601H76m103 153L86 710h72l127 117z" horiz-adv-x="472" unicode="Ĺ"/><glyph d="M590 0 358 674H254L25 0h91l153 465c13 44 23 85 33 127h3c10-41 20-81 35-128L496 0z" horiz-adv-x="609" unicode="Λ"/><glyph d="M76 0h375v73H163v601H76m184-170c62 4 129 34 129 108 0 33-20 60-40 73l-65-14c18-14 34-37 34-60 0-40-36-59-75-66z" horiz-adv-x="472" unicode="Ľ"/><glyph d="M76 0h375v73H163v601H76m111-896c62 4 129 34 129 108 0 33-20 60-40 73l-65-14c18-14 34-37 34-60 0-40-36-59-75-66z" horiz-adv-x="472" unicode="Ļ"/><glyph d="M76 0h375v73H163v601H76m265-354c28 0 49 25 49 51s-21 50-48 50c-29 0-51-24-51-50s22-51 49-51z" horiz-adv-x="472" unicode="Ŀ"/><glyph d="M455 0v73H167v256l134 96v69l-134-97v277H80V337l-84-61v-68l84 62V0z" horiz-adv-x="476" unicode="Ł"/><glyph d="M661 0h85l-42 674H593L473 348c-30-85-54-159-71-227h-3c-17 70-40 144-68 227L216 674H105L58 0h83l18 289c6 101 11 214 13 298h2c19-80 46-167 78-262L361 4h66l119 327c34 92 62 177 85 256h3c-1-84 5-197 10-291z" horiz-adv-x="804" unicode="M"/><glyph d="M661 0h85l-42 674H593L473 348c-30-85-54-159-71-227h-3c-17 70-40 144-68 227L216 674H105L58 0h83l18 289c6 101 11 214 13 298h2c19-80 46-167 78-262L361 4h66l119 327c34 92 62 177 85 256h3c-1-84 5-197 10-291M368 824 265 710h71l64 69h2l64-69h73L435 824z" horiz-adv-x="804" unicode=""/><glyph d="M661 0h85l-42 674H593L473 348c-30-85-54-159-71-227h-3c-17 70-40 144-68 227L216 674H105L58 0h83l18 289c6 101 11 214 13 298h2c19-80 46-167 78-262L361 4h66l119 327c34 92 62 177 85 256h3c-1-84 5-197 10-291z" horiz-adv-x="804" unicode="Μ"/><glyph d="M158 0v288c0 112-2 193-7 278l3 1c34-73 79-150 126-225L494 0h88v674h-82V392c0-105 2-187 10-277l-2-1c-32 69-71 140-121 219L171 674H76V0z" horiz-adv-x="658" unicode="N"/><glyph d="M158 0v288c0 112-2 193-7 278l3 1c34-73 79-150 126-225L494 0h88v674h-82V392c0-105 2-187 10-277l-2-1c-32 69-71 140-121 219L171 674H76V0m219 824L192 710h71l64 69h2l64-69h73L362 824z" horiz-adv-x="658" unicode=""/><glyph d="M158 0v288c0 112-2 193-7 278l3 1c34-73 79-150 126-225L494 0h88v674h-82V392c0-105 2-187 10-277l-2-1c-32 69-71 140-121 219L171 674H76V0m295 827-93-117h72l127 117z" horiz-adv-x="658" unicode="Ń"/><glyph d="M158 0v288c0 112-2 193-7 278l3 1c34-73 79-150 126-225L494 0h88v674h-82V392c0-105 2-187 10-277l-2-1c-32 69-71 140-121 219L171 674H76V0m288 705 103 114h-72l-63-69h-2l-64 69h-74l105-114z" horiz-adv-x="658" unicode="Ň"/><glyph d="M158 0v288c0 112-2 193-7 278l3 1c34-73 79-150 126-225L494 0h88v674h-82V392c0-105 2-187 10-277l-2-1c-32 69-71 140-121 219L171 674H76V0m194-221c62 4 129 34 129 108 0 33-20 60-40 73l-65-14c18-14 34-37 34-60 0-40-36-59-75-66z" horiz-adv-x="658" unicode="Ņ"/><glyph d="M158 0v288c0 112-2 193-7 278l3 1c34-73 79-150 126-225L494 0h88v674h-82V392c0-105 2-187 10-277l-2-1c-32 69-71 140-121 219L171 674H76V0m181 715c2 27 10 44 26 44 14 0 28-9 47-19 22-11 40-19 61-19 46 0 68 34 67 97h-46c-3-32-12-39-27-39-16 0-32 9-48 18-21 11-37 20-59 20-44 0-70-41-68-102z" horiz-adv-x="658" unicode="Ñ"/><glyph d="M158 0v288c0 112-2 193-7 278l3 1c34-73 79-150 126-225L494 0h88v674h-82V392c0-105 2-187 10-277l-2-1c-32 69-71 140-121 219L171 674H76V0z" horiz-adv-x="658" unicode="Ν"/><glyph d="M349 685C169 685 36 545 36 331 36 127 161-11 339-11c172 0 313 123 313 355 0 200-119 341-303 341m-4-71c145 0 215-140 215-274 0-153-78-280-216-280-137 0-215 129-215 273 0 148 72 281 216 281" horiz-adv-x="689" unicode="O"/><glyph d="M857 73H565v242h261v73H565v213h277v73H520c-18 0-39 3-64 6-25 2-53 5-88 5-194 0-332-131-332-353C36 139 154-11 363-11c32 0 58 3 83 5 24 3 46 6 66 6h345M477 73c-22-8-61-13-98-13-158 0-251 112-250 276-1 165 91 278 242 278 48 0 80-6 106-15z" horiz-adv-x="894" unicode="Œ"/><glyph d="M349 685C169 685 36 545 36 331 36 127 161-11 339-11c172 0 313 123 313 355 0 200-119 341-303 341m-4-71c145 0 215-140 215-274 0-153-78-280-216-280-137 0-215 129-215 273 0 148 72 281 216 281m39 216-93-117h72l127 117z" horiz-adv-x="689" unicode="Ó"/><glyph d="M349 685C169 685 36 545 36 331 36 127 161-11 339-11c172 0 313 123 313 355 0 200-119 341-303 341m-4-71c145 0 215-140 215-274 0-153-78-280-216-280-137 0-215 129-215 273 0 148 72 281 216 281M220 830c2-60 38-106 123-106 86 0 123 47 125 106h-51c-5-26-24-49-73-49s-67 26-72 49z" horiz-adv-x="689" unicode="Ŏ"/><glyph d="M349 685C169 685 36 545 36 331 36 127 161-11 339-11c172 0 313 123 313 355 0 200-119 341-303 341m-4-71c145 0 215-140 215-274 0-153-78-280-216-280-137 0-215 129-215 273 0 148 72 281 216 281m-35 213L207 713h71l64 69h2l64-69h73L377 827z" horiz-adv-x="689" unicode="Ô"/><glyph d="M349 685C169 685 36 545 36 331 36 127 161-11 339-11c172 0 313 123 313 355 0 200-119 341-303 341m-4-71c145 0 215-140 215-274 0-153-78-280-216-280-137 0-215 129-215 273 0 148 72 281 216 281m-93 107c29 0 48 23 48 51s-20 50-48 50-49-23-49-50c0-28 19-51 48-51m186 0c30 0 49 23 49 51s-20 50-48 50c-29 0-50-23-50-50 0-28 20-51 48-51z" horiz-adv-x="689" unicode="Ö"/><glyph d="M349 685C169 685 36 545 36 331 36 127 161-11 339-11c172 0 313 123 313 355 0 200-119 341-303 341m-4-71c145 0 215-140 215-274 0-153-78-280-216-280-137 0-215 129-215 273 0 148 72 281 216 281M199 830l127-116h72l-93 116z" horiz-adv-x="689" unicode="Ò"/><glyph d="M344 60c-138 0-216 131-215 273-1 146 71 281 216 281s215-140 215-274c0-153-78-280-216-280m249 680c9-18 16-40 16-64 0-29-12-44-45-44-32 0-80 26-111 36-26 9-64 17-104 17-180 0-313-140-313-354C36 127 161-11 339-11c172 0 313 123 313 355 0 105-33 186-78 238 72-7 105 34 105 89 0 34-8 60-18 82z" horiz-adv-x="689" unicode="Ơ"/><glyph d="M349 685C169 685 36 545 36 331 36 127 161-11 339-11c172 0 313 123 313 355 0 200-119 341-303 341m-4-71c145 0 215-140 215-274 0-153-78-280-216-280-137 0-215 129-215 273 0 148 72 281 216 281m-26 216-80-112h64l111 112m52 0-80-112h64l112 112z" horiz-adv-x="689" unicode="Ő"/><glyph d="M349 685C169 685 36 545 36 331 36 127 161-11 339-11c172 0 313 123 313 355 0 200-119 341-303 341m-4-71c145 0 215-140 215-274 0-153-78-280-216-280-137 0-215 129-215 273 0 148 72 281 216 281M225 793v-55h239v55z" horiz-adv-x="689" unicode="Ō"/><glyph d="M528 73c67 56 133 155 133 293 0 178-117 319-304 319-179 0-314-135-314-327 0-130 65-230 132-285v-4H30V0h254v55c-80 50-150 170-150 296 0 132 79 263 221 263 143 0 216-139 216-262 0-135-69-242-149-297V0h253v69H528z" horiz-adv-x="705" unicode="Ω"/><glyph d="M565 73c68 54 133 153 133 292 0 178-118 320-304 320-179 0-314-136-314-328 0-130 64-229 132-284v-4H66V0h254v55c-80 49-149 165-149 295 0 132 79 264 221 264 143 0 215-140 216-263 0-138-69-242-150-296V0h253v69H565M7 674 0 519h52l35 155z" horiz-adv-x="742" unicode="Ώ"/><glyph d="M340-11c171 0 312 123 312 355 0 200-119 341-303 341-180 0-313-140-313-354C36 127 161-11 339-11m4 71c-137 0-215 131-214 273-1 146 71 281 216 281s215-140 215-274c0-153-78-280-216-280z" horiz-adv-x="689" unicode="Ο"/><glyph d="M380-11c171 0 312 123 312 355 0 200-120 341-304 341-180 0-312-140-312-354C76 127 200-11 379-11m4 71c-137 0-215 131-215 273 0 146 72 281 217 281s215-140 215-274c0-153-78-280-216-280M7 674 0 519h52l35 155z" horiz-adv-x="728" unicode="Ό"/><glyph d="m112-43 63 86c48-35 107-54 171-54 161 0 306 119 306 354 0 99-31 187-87 248l62 86-53 36-59-81c-48 35-106 53-168 53-176 0-311-139-311-352 0-100 33-189 89-249L63-4m113 162-1-1c-30 52-50 106-50 181 0 141 74 277 221 277 50 0 92-18 126-47m41-53h3c35-57 47-118 47-175 0-152-78-281-219-281-54 0-93 17-126 48z" horiz-adv-x="689" unicode="Ø"/><glyph d="m112-43 63 86c48-35 107-54 171-54 161 0 306 119 306 354 0 99-31 187-87 248l62 86-53 36-59-81c-48 35-106 53-168 53-176 0-311-139-311-352 0-100 33-189 89-249L63-4m113 162-1-1c-30 52-50 106-50 181 0 141 74 277 221 277 50 0 92-18 126-47m41-53h3c35-57 47-118 47-175 0-152-78-281-219-281-54 0-93 17-126 48m174 728-93-117h72l127 117z" horiz-adv-x="689" unicode="Ǿ"/><glyph d="M349 685C169 685 36 545 36 331 36 127 161-11 339-11c172 0 313 123 313 355 0 200-119 341-303 341m-4-71c145 0 215-140 215-274 0-153-78-280-216-280-137 0-215 129-215 273 0 148 72 281 216 281m-78 103c2 27 10 44 26 44 14 0 28-9 47-19 22-11 40-19 61-19 46 0 68 34 67 97h-46c-3-32-12-39-27-39-16 0-32 9-48 18-21 11-37 20-59 20-44 0-70-41-68-102z" horiz-adv-x="689" unicode="Õ"/><glyph d="M76 0h87v270c20-5 44-6 70-6 85 0 160 25 206 74 34 35 52 83 52 144 0 60-22 109-59 141-40 36-103 56-189 56-70 0-125-6-167-13m87-63c15 4 44 7 82 7 96 0 159-43 159-132 0-93-64-144-169-144-29 0-53 2-72 7z" horiz-adv-x="532" unicode="P"/><glyph d="M400 26c142 12 282 112 282 312 0 199-140 301-280 312v50h-84v-50C190 640 36 540 36 333 36 132 179 38 316 26v-52h84M317 89c-98 12-191 98-191 246 0 162 104 246 191 252m84 0c95-9 191-91 191-251 0-154-95-238-191-247z" horiz-adv-x="718" unicode="Φ"/><glyph d="M558 674H76V0h87v600h307V0h88z" horiz-adv-x="634" unicode="Π"/><glyph d="M639 674h-86V488c0-154-80-209-169-214v400h-82V275c-100 5-170 57-170 194v205H47V454c0-176 124-243 254-248V0h83v206c149 8 255 98 255 273z" horiz-adv-x="685" unicode="Ψ"/><glyph d="M657-26C600-16 527 0 460 17v4c112 39 192 150 192 323 0 199-119 341-302 341-182 0-314-139-314-355C36 113 173-5 333-11c13 0 27-5 41-10 78-27 167-54 258-78M343 60c-136 0-215 129-214 272-1 146 71 282 218 282 143 0 213-139 213-274 0-154-78-280-216-280z" horiz-adv-x="689" unicode="Q"/><glyph d="M76 0h87v292h82c79-3 115-38 135-131 19-84 34-141 45-161h90c-14 26-30 91-52 185-16 70-47 118-99 136v3c71 24 127 83 127 172 0 52-19 98-53 128-42 38-102 55-195 55-60 0-123-5-167-14m87-61c14 4 44 8 86 8 92-1 155-39 155-126 0-77-59-128-152-128h-89z" horiz-adv-x="538" unicode="R"/><glyph d="M76 0h87v292h82c79-3 115-38 135-131 19-84 34-141 45-161h90c-14 26-30 91-52 185-16 70-47 118-99 136v3c71 24 127 83 127 172 0 52-19 98-53 128-42 38-102 55-195 55-60 0-123-5-167-14m87-61c14 4 44 8 86 8 92-1 155-39 155-126 0-77-59-128-152-128h-89m139 472-93-117h72l127 117z" horiz-adv-x="538" unicode="Ŕ"/><glyph d="M76 0h87v292h82c79-3 115-38 135-131 19-84 34-141 45-161h90c-14 26-30 91-52 185-16 70-47 118-99 136v3c71 24 127 83 127 172 0 52-19 98-53 128-42 38-102 55-195 55-60 0-123-5-167-14m87-61c14 4 44 8 86 8 92-1 155-39 155-126 0-77-59-128-152-128h-89m134 355 103 114h-72l-63-69h-2l-64 69h-74l105-114z" horiz-adv-x="538" unicode="Ř"/><glyph d="M76 0h87v292h82c79-3 115-38 135-131 19-84 34-141 45-161h90c-14 26-30 91-52 185-16 70-47 118-99 136v3c71 24 127 83 127 172 0 52-19 98-53 128-42 38-102 55-195 55-60 0-123-5-167-14m87-61c14 4 44 8 86 8 92-1 155-39 155-126 0-77-59-128-152-128h-89m49-573c62 4 129 34 129 108 0 33-20 60-40 73l-65-14c18-14 34-37 34-60 0-40-36-59-75-66z" horiz-adv-x="538" unicode="Ŗ"/><glyph d="M76 0h87v270c20-5 44-6 70-6 85 0 160 25 206 74 34 35 52 83 52 144 0 60-22 109-59 141-40 36-103 56-189 56-70 0-125-6-167-13m87-63c15 4 44 7 82 7 96 0 159-43 159-132 0-93-64-144-169-144-29 0-53 2-72 7z" horiz-adv-x="532" unicode="Ρ"/><glyph d="M42 33C78 9 149-11 214-11c159 0 236 91 236 195 0 99-58 154-172 198-93 36-134 67-134 130 0 46 35 101 127 101 61 0 106-20 128-32l24 71c-30 17-80 33-149 33-131 0-218-78-218-183 0-95 68-152 178-191 91-35 127-71 127-134 0-68-52-115-141-115-60 0-117 20-156 44z" horiz-adv-x="493" unicode="S"/><glyph d="M42 33C78 9 149-11 214-11c159 0 236 91 236 195 0 99-58 154-172 198-93 36-134 67-134 130 0 46 35 101 127 101 61 0 106-20 128-32l24 71c-30 17-80 33-149 33-131 0-218-78-218-183 0-95 68-152 178-191 91-35 127-71 127-134 0-68-52-115-141-115-60 0-117 20-156 44m235 724-93-117h72l127 117z" horiz-adv-x="493" unicode="Ś"/><glyph d="M42 33C78 9 149-11 214-11c159 0 236 91 236 195 0 99-58 154-172 198-93 36-134 67-134 130 0 46 35 101 127 101 61 0 106-20 128-32l24 71c-30 17-80 33-149 33-131 0-218-78-218-183 0-95 68-152 178-191 91-35 127-71 127-134 0-68-52-115-141-115-60 0-117 20-156 44m228 607 103 114h-72l-63-69h-2l-64 69h-74l105-114z" horiz-adv-x="493" unicode="Š"/><glyph d="M42 33C80 8 153-11 211-11h7l-40-70c47-5 78-17 78-42 0-22-20-32-42-32-21 0-39 6-55 15l-15-43c17-10 43-17 70-17 54 0 103 23 103 80 0 37-32 65-70 70l28 45C393 16 450 95 450 184c0 99-58 154-172 198-93 36-134 67-134 130 0 46 35 101 127 101 61 0 106-20 128-32l24 71c-30 17-80 33-149 33-131 0-218-78-218-183 0-95 68-152 178-191 91-35 127-71 127-134 0-68-52-115-141-115-60 0-117 20-156 44z" horiz-adv-x="493" unicode="Ş"/><glyph d="M42 33C80 8 153-11 211-11h7l-40-70c47-5 78-17 78-42 0-22-20-32-42-32-21 0-39 6-55 15l-15-43c17-10 43-17 70-17 54 0 103 23 103 80 0 37-32 65-70 70l28 45C393 16 450 95 450 184c0 99-58 154-172 198-93 36-134 67-134 130 0 46 35 101 127 101 61 0 106-20 128-32l24 71c-30 17-80 33-149 33-131 0-218-78-218-183 0-95 68-152 178-191 91-35 127-71 127-134 0-68-52-115-141-115-60 0-117 20-156 44z" horiz-adv-x="340" unicode=""/><glyph d="M42 33C78 9 149-11 214-11c159 0 236 91 236 195 0 99-58 154-172 198-93 36-134 67-134 130 0 46 35 101 127 101 61 0 106-20 128-32l24 71c-30 17-80 33-149 33-131 0-218-78-218-183 0-95 68-152 178-191 91-35 127-71 127-134 0-68-52-115-141-115-60 0-117 20-156 44m150 721L111 713h71l64 69h2l64-69h73L281 827z" horiz-adv-x="493" unicode="Ŝ"/><glyph d="M42 33C78 9 149-11 214-11c159 0 236 91 236 195 0 99-58 154-172 198-93 36-134 67-134 130 0 46 35 101 127 101 61 0 106-20 128-32l24 71c-30 17-80 33-149 33-131 0-218-78-218-183 0-95 68-152 178-191 91-35 127-71 127-134 0-68-52-115-141-115-60 0-117 20-156 44m121-328c62 4 129 34 129 108 0 33-20 60-40 73l-65-14c18-14 34-37 34-60 0-40-36-59-75-66z" horiz-adv-x="493" unicode="Ș"/><glyph d="m140 76 217 262-206 260v4h341v72H39v-59l221-280L26 52V0h498v73H140z" horiz-adv-x="552" unicode="Σ"/><glyph d="M204 0h88v600h206v74H-1v-74h205z" horiz-adv-x="497" unicode="T"/><glyph d="M204 0h88v600h206v74H-1v-74h205z" horiz-adv-x="497" unicode="Τ"/><glyph d="M498 600v74H-1v-74h205V378H80v-58h124V0h88v320h124v58H292v222z" horiz-adv-x="497" unicode="Ŧ"/><glyph d="M204 0h88v600h206v74H-1v-74h205m78 110 103 114h-72l-63-69h-2l-64 69h-74l105-114z" horiz-adv-x="497" unicode="Ť"/><glyph d="M204 0h88v600h206v74H-1v-74h205m-24-822c62 4 129 34 129 108 0 33-20 60-40 73l-65-14c18-14 34-37 34-60 0-40-36-59-75-66z" horiz-adv-x="497" unicode="Ţ"/><glyph d="M341-11c171 0 312 123 312 355 0 200-120 341-304 341-180 0-313-140-313-354C36 127 161-11 340-11m4 71c-138 0-216 131-216 273 0 146 72 281 218 281 145 0 215-140 215-274 0-153-78-280-216-280M209 383v-72h271v72z" horiz-adv-x="689" unicode="Θ"/><glyph d="M76 0h86v156c21-3 48-5 76-5 146 0 253 71 253 213 0 52-20 98-55 131-41 36-99 55-178 55-36 0-69-3-96-8v132H76m86-201c16 4 48 8 88 8 92 0 154-39 154-126 0-82-59-134-167-134-26 0-52 2-75 6z" horiz-adv-x="531" unicode="Þ"/><glyph d="M75 674V277C75 68 179-11 317-11c146 0 255 85 255 292v393h-88V275c0-149-64-215-164-215-90 0-157 64-157 215v399z" horiz-adv-x="647" unicode="U"/><glyph d="M75 674V277C75 68 179-11 317-11c146 0 255 85 255 292v393h-88V275c0-149-64-215-164-215-90 0-157 64-157 215v399m204 153-93-117h72l127 117z" horiz-adv-x="647" unicode="Ú"/><glyph d="M75 674V277C75 68 179-11 317-11c146 0 255 85 255 292v393h-88V275c0-149-64-215-164-215-90 0-157 64-157 215v399m36 153c2-60 38-106 123-106 86 0 123 47 125 106h-51c-5-26-24-49-73-49s-67 26-72 49z" horiz-adv-x="647" unicode="Ŭ"/><glyph d="M75 674V277C75 68 179-11 317-11c146 0 255 85 255 292v393h-88V275c0-149-64-215-164-215-90 0-157 64-157 215v399m133 150L193 710h71l64 69h2l64-69h73L363 824z" horiz-adv-x="647" unicode="Û"/><glyph d="M75 674V277C75 68 179-11 317-11c146 0 255 85 255 292v393h-88V275c0-149-64-215-164-215-90 0-157 64-157 215v399m71 47c29 0 48 23 48 51s-20 50-48 50-49-23-49-50c0-28 19-51 48-51m186 0c30 0 49 23 49 51s-20 50-48 50c-29 0-50-23-50-50 0-28 20-51 48-51z" horiz-adv-x="647" unicode="Ü"/><glyph d="M75 674V277C75 68 179-11 317-11c146 0 255 85 255 292v393h-88V275c0-149-64-215-164-215-90 0-157 64-157 215v399m20 153 127-116h72l-93 116z" horiz-adv-x="647" unicode="Ù"/><glyph d="M593 770c10-18 16-39 16-58 0-26-12-38-46-38h-79V275c0-149-64-215-164-215-90 0-157 64-157 215v399H75V277C75 68 179-11 317-11c146 0 255 85 255 292v340l15 1c60 2 90 36 90 85 0 28-7 53-17 75z" horiz-adv-x="677" unicode="Ư"/><glyph d="M75 674V277C75 68 179-11 317-11c146 0 255 85 255 292v393h-88V275c0-149-64-215-164-215-90 0-157 64-157 215v399m120 153-80-112h64l111 112m52 0-80-112h64l112 112z" horiz-adv-x="647" unicode="Ű"/><glyph d="M75 674V277C75 68 179-11 317-11c146 0 255 85 255 292v393h-88V275c0-149-64-215-164-215-90 0-157 64-157 215v399m41 114v-55h239v55z" horiz-adv-x="647" unicode="Ū"/><glyph d="M416-135c-14-6-30-10-46-10-25 0-45 15-45 43 0 36 34 76 61 101 109 22 186 110 186 282v393h-88V275c0-149-64-215-164-215-90 0-157 64-157 215v399H75V277C75 72 175-6 308-11c2 0 4 1 6 1-27-29-57-70-57-114 0-50 34-80 90-80 27 0 61 9 82 24z" horiz-adv-x="647" unicode="Ų"/><glyph d="M10 609c89-20 183-118 223-299 9-41 14-86 14-136V0h87v173c0 52 9 98 19 138 46 174 157 270 231 298l-15 71c-45-7-107-43-154-93-48-53-100-137-117-245h-4c-12 106-53 190-104 247-46 54-117 88-164 91z" horiz-adv-x="588" unicode="Υ"/><glyph d="M206 697c29 0 48 23 48 50 0 28-20 50-47 50-28 0-50-22-50-50 0-27 20-50 48-50m185 0c29 0 48 23 48 50 0 28-20 50-48 50s-49-22-49-50c0-27 20-50 48-50M10 609c89-20 183-118 223-299 9-41 14-86 14-136V0h87v173c0 52 9 98 19 138 46 174 157 270 231 298l-15 71c-45-7-107-43-154-93-48-53-100-137-117-245h-4c-12 106-53 190-104 247-46 54-117 88-164 91z" horiz-adv-x="588" unicode="Ϋ"/><glyph d="M128 609c88-20 182-118 223-299 8-41 14-86 14-136V0h87v173c0 52 8 98 18 138 46 174 157 270 232 298l-16 71c-44-7-106-43-153-93-48-53-100-137-117-245h-4c-13 106-53 190-104 247-46 54-117 88-164 91M7 674 0 519h52l35 155z" horiz-adv-x="707" unicode="Ύ"/><glyph d="M75 674V277C75 68 179-11 317-11c146 0 255 85 255 292v393h-88V275c0-149-64-215-164-215-90 0-157 64-157 215v399m162 199c-62 0-101-41-101-91 0-49 40-88 101-88 58 0 99 38 99 88 0 51-38 91-98 91m-3-37c30 0 49-24 49-53s-19-52-49-52c-28 0-47 25-47 51 0 29 17 54 46 54z" horiz-adv-x="647" unicode="Ů"/><glyph d="M75 674V277C75 68 179-11 317-11c146 0 255 85 255 292v393h-88V275c0-149-64-215-164-215-90 0-157 64-157 215v399m83 41c2 27 10 44 26 44 14 0 28-9 47-19 22-11 40-19 61-19 46 0 68 34 67 97h-46c-3-32-12-39-27-39-16 0-32 9-48 18-21 11-37 20-59 20-44 0-70-41-68-102z" horiz-adv-x="647" unicode="Ũ"/><glyph d="m320 0 241 674h-93L354 341c-30-88-58-173-77-251h-2c-18 79-43 161-72 252L98 674H4L224 0z" horiz-adv-x="558" unicode="V"/><glyph d="m277 0 96 351c25 87 40 153 52 220h2c9-68 23-134 44-220L556 0h91l191 674h-89l-89-340c-21-84-40-159-54-233h-2c-10 71-28 151-47 231l-82 342h-91l-90-340c-23-87-44-167-55-234h-2c-12 65-30 149-50 233l-80 341H15L186 0z" horiz-adv-x="846" unicode="W"/><glyph d="m277 0 96 351c25 87 40 153 52 220h2c9-68 23-134 44-220L556 0h91l191 674h-89l-89-340c-21-84-40-159-54-233h-2c-10 71-28 151-47 231l-82 342h-91l-90-340c-23-87-44-167-55-234h-2c-12 65-30 149-50 233l-80 341H15L186 0m291 827-93-117h72l127 117z" horiz-adv-x="846" unicode="Ẃ"/><glyph d="m277 0 96 351c25 87 40 153 52 220h2c9-68 23-134 44-220L556 0h91l191 674h-89l-89-340c-21-84-40-159-54-233h-2c-10 71-28 151-47 231l-82 342h-91l-90-340c-23-87-44-167-55-234h-2c-12 65-30 149-50 233l-80 341H15L186 0m205 824L288 710h71l64 69h2l64-69h73L458 824z" horiz-adv-x="846" unicode="Ŵ"/><glyph d="m277 0 96 351c25 87 40 153 52 220h2c9-68 23-134 44-220L556 0h91l191 674h-89l-89-340c-21-84-40-159-54-233h-2c-10 71-28 151-47 231l-82 342h-91l-90-340c-23-87-44-167-55-234h-2c-12 65-30 149-50 233l-80 341H15L186 0m148 721c29 0 48 23 48 51s-20 50-48 50-49-23-49-50c0-28 19-51 48-51m186 0c30 0 49 23 49 51s-20 50-48 50c-29 0-50-23-50-50 0-28 20-51 48-51z" horiz-adv-x="846" unicode="Ẅ"/><glyph d="m277 0 96 351c25 87 40 153 52 220h2c9-68 23-134 44-220L556 0h91l191 674h-89l-89-340c-21-84-40-159-54-233h-2c-10 71-28 151-47 231l-82 342h-91l-90-340c-23-87-44-167-55-234h-2c-12 65-30 149-50 233l-80 341H15L186 0m87 827 127-116h72l-93 116z" horiz-adv-x="846" unicode="Ẁ"/><glyph d="M546 0 336 346l205 328H441l-92-158c-25-43-42-74-61-114h-3c-18 36-37 70-62 114l-89 158H33l198-333L25 0h100l81 148c35 59 54 95 73 134h2c21-39 43-76 78-133L445 0z" horiz-adv-x="571" unicode="X"/><glyph d="M54 674v-72h441v72M87 385v-72h374v72M43 73V0h462v73z" horiz-adv-x="540" unicode="Ξ"/><glyph d="M314 0v287l226 387h-99l-97-186c-26-51-49-95-68-139h-2c-21 47-41 88-67 139l-95 186H13l213-388V0z" horiz-adv-x="541" unicode="Y"/><glyph d="M314 0v287l226 387h-99l-97-186c-26-51-49-95-68-139h-2c-21 47-41 88-67 139l-95 186H13l213-388V0m94 822-93-117h72l127 117z" horiz-adv-x="541" unicode="Ý"/><glyph d="M314 0v287l226 387h-99l-97-186c-26-51-49-95-68-139h-2c-21 47-41 88-67 139l-95 186H13l213-388V0m11 824L134 710h71l64 69h2l64-69h73L304 824z" horiz-adv-x="541" unicode="Ŷ"/><glyph d="M314 0v287l226 387h-99l-97-186c-26-51-49-95-68-139h-2c-21 47-41 88-67 139l-95 186H13l213-388V0m-39 714c29 0 48 23 48 51s-20 50-48 50-49-23-49-50c0-28 19-51 48-51m186 0c30 0 49 23 49 51s-20 50-48 50c-29 0-50-23-50-50 0-28 20-51 48-51z" horiz-adv-x="541" unicode="Ÿ"/><glyph d="M314 0v287l226 387h-99l-97-186c-26-51-49-95-68-139h-2c-21 47-41 88-67 139l-95 186H13l213-388V0m-95 820 127-116h72l-93 116z" horiz-adv-x="541" unicode="Ỳ"/><glyph d="M30 0h492v73H145v3l372 545v53H62v-73h342v-3L30 51z" horiz-adv-x="553" unicode="Z"/><glyph d="M30 0h492v73H145v3l372 545v53H62v-73h342v-3L30 51m295 776-93-117h72l127 117z" horiz-adv-x="553" unicode="Ź"/><glyph d="M30 0h492v73H145v3l372 545v53H62v-73h342v-3L30 51m290 659 103 114h-72l-63-69h-2l-64 69h-74l105-114z" horiz-adv-x="553" unicode="Ž"/><glyph d="M30 0h492v73H145v3l372 545v53H62v-73h342v-3L30 51m251 669c28 0 49 25 49 51s-21 50-48 50c-29 0-51-24-51-50s22-51 49-51z" horiz-adv-x="553" unicode="Ż"/><glyph d="M30 0h492v73H145v3l372 545v53H62v-73h342v-3L30 51z" horiz-adv-x="553" unicode="Ζ"/><glyph d="M413 297c0 97-36 198-184 198-61 0-119-17-159-43l20-58c34 22 81 36 126 36 99 0 110-72 110-112v-10c-187 1-291-63-291-180C35 58 85-11 183-11c69 0 121 34 148 72h3l7-61h80c-6 33-8 74-8 116m-85 47c0-9-2-19-5-28-14-41-54-81-117-81-45 0-83 27-83 84 0 94 109 111 205 109z" horiz-adv-x="482" unicode="a"/><glyph d="m275 693-88-143h63l122 143m41-396c0 97-36 198-184 198-61 0-119-17-159-43l20-58c34 22 81 36 126 36 99 0 110-72 110-112v-10c-187 1-291-63-291-180C35 58 85-11 183-11c69 0 121 34 148 72h3l7-61h80c-6 33-8 74-8 116m-85 47c0-9-2-19-5-28-14-41-54-81-117-81-45 0-83 27-83 84 0 94 109 111 205 109z" horiz-adv-x="482" unicode="á"/><glyph d="M117 682c0-62 36-124 124-124 75 0 124 50 124 124h-52c-3-33-25-69-72-69-41 0-66 30-72 69m244-385c0 97-36 198-184 198-61 0-119-17-159-43l20-58c34 22 81 36 126 36 99 0 110-72 110-112v-10c-187 1-291-63-291-180C35 58 85-11 183-11c69 0 121 34 148 72h3l7-61h80c-6 33-8 74-8 116m-85 47c0-9-2-19-5-28-14-41-54-81-117-81-45 0-83 27-83 84 0 94 109 111 205 109z" horiz-adv-x="482" unicode="ă"/><glyph d="m206 693-94-143h65l58 95h2l58-95h68l-96 143m146-396c0 97-36 198-184 198-61 0-119-17-159-43l20-58c34 22 81 36 126 36 99 0 110-72 110-112v-10c-187 1-291-63-291-180C35 58 85-11 183-11c69 0 121 34 148 72h3l7-61h80c-6 33-8 74-8 116m-85 47c0-9-2-19-5-28-14-41-54-81-117-81-45 0-83 27-83 84 0 94 109 111 205 109z" horiz-adv-x="482" unicode="â"/><glyph d="m189 693-88-143h63l122 143z" horiz-adv-x="300" unicode="´"/><glyph d="m198 827-93-117h72l127 117z" horiz-adv-x="300" unicode=""/><glyph d="M149 570c29 0 49 24 49 51 0 29-21 51-49 51s-51-23-51-51c0-27 21-51 50-51m186 0c29 0 49 24 49 51 0 29-21 51-49 51s-50-23-50-51c0-27 20-51 49-51m80-273c0 97-36 198-184 198-61 0-119-17-159-43l20-58c34 22 81 36 126 36 99 0 110-72 110-112v-10c-187 1-291-63-291-180C35 58 85-11 183-11c69 0 121 34 148 72h3l7-61h80c-6 33-8 74-8 116m-85 47c0-9-2-19-5-28-14-41-54-81-117-81-45 0-83 27-83 84 0 94 109 111 205 109z" horiz-adv-x="482" unicode="ä"/><glyph d="M734 233c2 9 3 24 3 39 0 80-41 223-189 223-76 0-136-39-169-102h-2c-20 61-69 102-156 102-48 0-108-17-151-44l21-58c29 20 78 37 124 37 98 0 113-84 113-108v-20c-188 2-292-63-292-175C36 57 86-11 187-11c83 0 149 40 180 107h2C397 28 471-11 553-11c64 0 120 13 159 34l-16 62c-27-13-65-28-132-28-91 0-157 61-154 176m-81-61c0-12-1-24-5-35-14-44-54-83-117-83-46 0-84 29-84 80 0 95 113 111 206 109m80 53c3 55 43 136 130 136 89 0 116-87 113-136z" horiz-adv-x="773" unicode="æ"/><glyph d="m429 693-88-143h63l122 143m208-460c2 9 3 24 3 39 0 80-41 223-189 223-76 0-136-39-169-102h-2c-20 61-69 102-156 102-48 0-108-17-151-44l21-58c29 20 78 37 124 37 98 0 113-84 113-108v-20c-188 2-292-63-292-175C36 57 86-11 187-11c83 0 149 40 180 107h2C397 28 471-11 553-11c64 0 120 13 159 34l-16 62c-27-13-65-28-132-28-91 0-157 61-154 176m-81-61c0-12-1-24-5-35-14-44-54-83-117-83-46 0-84 29-84 80 0 95 113 111 206 109m80 53c3 55 43 136 130 136 89 0 116-87 113-136z" horiz-adv-x="773" unicode="ǽ"/><glyph d="M424 212 496 0h93L359 674H254L25 0h90l70 212m18 68 66 195c13 41 24 82 34 122h2c10-39 20-79 35-123l66-194z" horiz-adv-x="612" unicode="А"/><glyph d="M76 674V2c29-4 75-8 136-8 92 0 183 21 238 75 35 35 56 83 56 146 0 79-35 132-86 165-47 31-110 45-174 45-22 0-62-2-83-5v181h291v73M163 353c22 2 49 4 69 4 48 0 93-10 128-34 33-23 55-58 55-110 0-42-14-75-37-99-33-35-88-52-142-52-30 0-53 1-73 5z" horiz-adv-x="546" unicode="Б"/><glyph d="M76 2c29-4 75-8 135-8 110 0 186 20 233 63 34 33 57 77 57 135 0 100-75 153-139 169v2c71 26 114 83 114 148 0 53-21 93-56 119-42 34-98 49-185 49-61 0-121-6-159-14m87-59c14 3 37 6 77 6 88 0 148-31 148-110 0-65-54-113-146-113h-79m0-66h72c95 0 174-38 174-130 0-98-83-131-173-131-31 0-56 1-73 4z" horiz-adv-x="542" unicode="В"/><glyph d="M76 674V0h87v601h271v73z" horiz-adv-x="433" unicode="Г"/><glyph d="M160 674V503c0-116-9-206-32-284-16-53-41-102-66-148l-51-2 6-231h68L91 0h425l6-162h68l6 231-59 2v603m-296-72h209V72H152c20 36 41 81 55 128 24 76 34 167 34 275z" horiz-adv-x="630" unicode="Д"/><glyph d="M425 388H163v213h277v73H76V0h379v73H163v243h262z" horiz-adv-x="492" unicode="Е"/><glyph d="M425 388H163v213h277v73H76V0h379v73H163v243h262M163 721c29 0 48 23 48 51s-20 50-48 50-49-23-49-50c0-28 19-51 48-51m186 0c30 0 49 23 49 51s-20 50-48 50c-29 0-50-23-50-50 0-28 20-51 48-51z" horiz-adv-x="492" unicode="Ё"/><glyph d="m21 674 239-310c-105-13-148-79-182-174C56 127 40 62 11 0h89c22 45 38 110 54 158 32 92 66 151 174 151h30V0h85v309h29c108 0 142-59 173-151 17-48 33-113 56-158h89c-28 62-44 127-67 191-33 96-76 162-182 173l239 310H678L470 375h-27v299h-85V375h-26L123 674z" horiz-adv-x="801" unicode="Ж"/><glyph d="M74 570c36 23 89 44 140 44 73 0 121-38 121-106 0-69-69-124-158-124h-40v-66h40c86 0 183-29 183-130 0-74-55-128-155-128-55 0-115 20-151 41L31 33C82 2 146-11 207-11c123 0 244 56 244 196 0 97-69 159-164 169v2c79 18 139 81 139 164 0 104-81 165-198 165-73 0-132-21-178-51z" horiz-adv-x="492" unicode="З"/><glyph d="M76 674V0h93l211 335c46 75 92 153 125 227l3-1c-7-85-8-165-8-274V0h82v674h-87L277 327c-49-80-91-153-125-223l-2 1c6 90 8 179 8 285v284z" horiz-adv-x="658" unicode="И"/><glyph d="M76 674V0h93l211 335c46 75 92 153 125 227l3-1c-7-85-8-165-8-274V0h82v674h-87L277 327c-49-80-91-153-125-223l-2 1c6 90 8 179 8 285v284m43 142c5-66 44-108 126-108 85 0 125 41 130 108h-67c-4-33-15-63-61-63-47 0-57 31-61 63z" horiz-adv-x="658" unicode="Й"/><glyph d="M76 674V0h86v309h28c114 0 157-61 188-150 18-53 37-113 61-159h94c-30 60-49 122-74 191-35 91-78 159-189 174l255 309H420L189 375h-27v299z" horiz-adv-x="542" unicode="К"/><glyph d="M123 674V390c0-108-5-239-59-292C48 82 20 67-7 62L4-8C43-8 82 8 107 24c95 64 101 227 101 373v204h223V0h88v674z" horiz-adv-x="594" unicode="Л"/><glyph d="M661 0h85l-42 674H593L473 348c-30-85-54-159-71-227h-3c-17 70-40 144-68 227L216 674H105L58 0h83l18 289c6 101 11 214 13 298h2c19-80 46-167 78-262L361 4h66l119 327c34 92 62 177 85 256h3c-1-84 5-197 10-291z" horiz-adv-x="804" unicode="М"/><glyph d="M76 674V0h87v316h326V0h88v674h-88V392H163v282z" horiz-adv-x="652" unicode="Н"/><glyph d="M349 685C169 685 36 545 36 331 36 127 161-11 339-11c172 0 313 123 313 355 0 200-119 341-303 341m-4-71c145 0 215-140 215-274 0-153-78-280-216-280-137 0-215 129-215 273 0 148 72 281 216 281" horiz-adv-x="689" unicode="О"/><glyph d="M76 674V0h87v601h313V0h87v674z" horiz-adv-x="639" unicode="П"/><glyph d="M76 0h87v270c20-5 44-6 70-6 85 0 160 25 206 74 34 35 52 83 52 144 0 60-22 109-59 141-40 36-103 56-189 56-70 0-125-6-167-13m87-63c15 4 44 7 82 7 96 0 159-43 159-132 0-93-64-144-169-144-29 0-53 2-72 7z" horiz-adv-x="532" unicode="Р"/><glyph d="M529 91c-35-17-89-28-142-28-164 0-259 106-259 271 0 177 105 278 263 278 56 0 103-12 136-28l21 71c-23 12-76 30-160 30-209 0-352-143-352-354C36 110 179-11 369-11c82 0 146 17 178 33z" horiz-adv-x="580" unicode="С"/><glyph d="M204 0h88v600h206v74H-1v-74h205z" horiz-adv-x="497" unicode="Т"/><glyph d="m2 674 224-456c8-16 10-25 3-40-21-49-62-116-132-116-15 0-25 1-32 3L56-6c11-4 27-6 49-6 60 0 109 28 153 83 47 62 89 165 126 256l141 347h-92L328 388c-17-47-30-87-42-121h-2c-16 39-32 79-49 119L101 674z" horiz-adv-x="521" unicode="У"/><glyph d="M322 701v-60c-130-8-286-87-286-308C36 120 179 45 320 36v-63h84v63c143 8 285 89 285 301S547 635 405 641v60M321 98c-99 10-195 78-195 239 0 175 107 236 195 241m83 0c97-5 195-67 195-240 0-167-98-232-195-240z" horiz-adv-x="725" unicode="Ф"/><glyph d="M546 0 336 346l205 328H441l-92-158c-25-43-42-74-61-114h-3c-18 36-37 70-62 114l-89 158H33l198-333L25 0h100l81 148c35 59 54 95 73 134h2c21-39 43-76 78-133L445 0z" horiz-adv-x="571" unicode="Х"/><glyph d="M76 674V0h462l6-162h69l6 231-59 2v603h-88V73H163v601z" horiz-adv-x="652" unicode="Ц"/><glyph d="M71 674V445c0-165 110-203 199-203 59 0 115 15 162 42h2V-4h88v678h-88V352c-35-22-86-39-133-39-95 0-143 53-143 145v216z" horiz-adv-x="597" unicode="Ч"/><glyph d="M76 674V0h696v674h-87V73H467v601h-86V73H162v601z" horiz-adv-x="847" unicode="Ш"/><glyph d="M76 674V0h675l5-162h69l6 231-59 2v603h-87V73H467v601h-86V73H162v601z" horiz-adv-x="864" unicode="Щ"/><glyph d="M-2 674v-72h173V2c29-4 75-8 134-8 90 0 179 20 235 79 32 34 52 81 52 144 0 147-123 210-253 210-26 0-61-2-81-5v252m0-321c21 3 47 5 70 5 88 0 172-40 172-145 0-102-76-151-173-151-28 0-50 1-69 5z" horiz-adv-x="631" unicode="Ъ"/><glyph d="M76 674V2c29-4 75-8 135-8 91 0 185 21 240 79 32 35 52 81 52 143 0 150-121 211-260 211-22 0-60-2-80-5v252m0-321c11 2 37 5 69 5 90 0 180-40 180-145 0-102-83-151-179-151-30 0-52 1-70 5m415 607V0h88v674z" horiz-adv-x="746" unicode="Ы"/><glyph d="M76 674V2c29-4 75-8 136-8 93 0 187 21 242 79 32 35 52 81 52 144 0 149-122 210-260 210-23 0-63-2-83-5v252m0-321c22 3 49 5 71 5 96 0 181-40 181-146 0-103-83-150-180-150-30 0-52 1-72 5z" horiz-adv-x="545" unicode="Ь"/><glyph d="M123 310h315c-6-140-95-248-244-248-50 0-106 13-145 31L30 24C78 2 139-11 206-11c179 0 325 126 325 347 0 196-108 349-320 349-64 0-122-18-170-39l21-67c43 19 90 34 144 34 139 0 220-103 231-233H123z" horiz-adv-x="568" unicode="Э"/><glyph d="M76 674V0h87v310h98c7-197 117-321 280-321 160 0 290 121 290 355 0 200-106 341-281 341-159 0-269-114-287-302H163v291M544 59c-126 0-197 132-197 274 0 146 65 282 199 282 133 0 196-141 196-275 0-153-70-281-197-281z" horiz-adv-x="867" unicode="Ю"/><glyph d="M108 0c10 18 15 32 22 49 24 64 43 163 89 210 24 24 55 33 97 33h64V0h87v665c-44 9-104 14-161 14-85 0-151-18-193-52-38-31-62-78-62-137 0-92 66-152 149-166v-3c-20-6-40-18-56-34C89 232 71 138 42 61 34 39 25 18 15 0m365 359c-17-1-45-1-74-1-95 0-167 47-167 128 0 93 73 126 159 126 39 0 67-5 82-9z" horiz-adv-x="543" unicode="Я"/><glyph d="M76 674V0h87v601h274l11 195h-64l-16-122z" horiz-adv-x="447" unicode="Ґ"/><glyph d="M-1 674v-73h187V0h87v338c30 22 70 39 114 39 51 0 87-22 113-61 23-36 34-86 34-146 0-75-18-133-47-171-29-39-71-60-110-70l16-68c44 7 97 29 139 76 59 50 93 138 93 241 0 68-14 136-51 188s-89 84-163 84c-52 0-103-21-135-41h-3v192h244v73z" horiz-adv-x="665" unicode="Ђ"/><glyph d="M76 674V0h87v601h271v73M283 827l-93-117h72l127 117z" horiz-adv-x="433" unicode="Ѓ"/><glyph d="M544 653c-24 12-72 32-157 32-219 0-351-159-351-349C36 118 180-11 371-11c80 0 139 17 172 33l-16 67c-39-17-88-27-140-27-154 0-252 111-256 247h345v70H130c14 130 107 234 260 234 52 0 100-12 133-28z" horiz-adv-x="576" unicode="Є"/><glyph d="M42 33C78 9 149-11 214-11c159 0 236 91 236 195 0 99-58 154-172 198-93 36-134 67-134 130 0 46 35 101 127 101 61 0 106-20 128-32l24 71c-30 17-80 33-149 33-131 0-218-78-218-183 0-95 68-152 178-191 91-35 127-71 127-134 0-68-52-115-141-115-60 0-117 20-156 44z" horiz-adv-x="493" unicode="Ѕ"/><glyph d="M76 674V0h87v674z" horiz-adv-x="239" unicode="І"/><glyph d="M76 674V0h87v674M28 721c29 0 48 23 48 51s-20 50-48 50-49-23-49-50c0-28 19-51 48-51m186 0c30 0 49 23 49 51s-20 50-48 50c-29 0-50-23-50-50 0-28 20-51 48-51z" horiz-adv-x="239" unicode="Ї"/><glyph d="M214 230C214 98 168 63 90 63c-29 0-55 6-73 13L4 5c22-9 61-16 93-16 116 0 204 55 204 234v451h-87z" horiz-adv-x="370" unicode="Ј"/><glyph d="M125 674V390c0-108-5-239-59-291C50 83 22 67-6 62L7-8C43-8 84 8 108 24c94 64 101 227 101 373v204h205V2c29-4 74-8 135-8 93 0 181 21 237 75 34 35 56 83 56 146 0 149-124 210-259 210-22 0-61-2-82-5v254m0-321c22 2 49 4 70 4 94 0 180-39 180-144 0-102-83-151-180-151-28 0-49 1-70 4z" horiz-adv-x="881" unicode="Љ"/><glyph d="M76 674V0h87v331h267V2c29-4 74-8 136-8 96 0 180 19 235 74 35 34 57 81 57 146 0 142-117 202-249 202-35 0-71-2-92-5v263h-87V405H163v269m354-330c19 2 43 4 74 4 93 0 176-38 176-137 0-104-84-149-179-149-29 0-51 1-71 5z" horiz-adv-x="897" unicode="Њ"/><glyph d="M-1 674v-73h184V0h88v340c32 23 84 43 127 43 38 0 65-12 86-34 23-25 32-60 32-110V0h88v251c0 67-17 120-53 157-29 29-69 46-125 46-57 0-115-23-153-46h-2v193h235v73z" horiz-adv-x="675" unicode="Ћ"/><glyph d="M76 674V0h86v309h28c114 0 157-61 188-150 18-53 37-113 61-159h94c-30 60-49 122-74 191-35 91-78 159-189 174l255 309H420L189 375h-27v299m156 148-93-117h72l127 117z" horiz-adv-x="542" unicode="Ќ"/><glyph d="m2 674 224-456c8-16 10-25 3-40-21-49-62-116-132-116-15 0-25 1-32 3L56-6c11-4 27-6 49-6 60 0 109 28 153 83 47 62 89 165 126 256l141 347h-92L328 388c-17-47-30-87-42-121h-2c-16 39-32 79-49 119L101 674m32 143c5-66 44-108 126-108 85 0 125 41 130 108h-67c-4-33-15-63-61-63-47 0-57 31-61 63z" horiz-adv-x="521" unicode="Ў"/><glyph d="M413 297c0 97-36 198-184 198-61 0-119-17-159-43l20-58c34 22 81 36 126 36 99 0 110-72 110-112v-10c-187 1-291-63-291-180C35 58 85-11 183-11c69 0 121 34 148 72h3l7-61h80c-6 33-8 74-8 116m-85 47c0-9-2-19-5-28-14-41-54-81-117-81-45 0-83 27-83 84 0 94 109 111 205 109z" horiz-adv-x="482" unicode="а"/><glyph d="M443 721c-33-12-81-20-120-26-94-16-161-47-208-114-52-68-75-158-75-268C40 152 96-11 266-11c142 0 224 98 224 256 0 154-87 239-206 239-69 0-137-39-168-109h-3c4 51 22 116 53 160 37 53 94 79 172 91 32 5 76 13 101 22m-38-410c0-89-36-184-133-184-96 0-135 116-135 196 0 39 8 74 24 103 20 39 57 66 109 66 104 0 135-103 135-180z" horiz-adv-x="528" unicode="б"/><glyph d="M71 0c26-2 82-6 136-6 95 0 255 16 255 143 0 70-52 110-123 120v2c55 12 101 49 101 109 0 108-134 121-215 121-57 0-120-5-154-11m84-54c21 2 39 4 68 4 88 0 130-23 130-71 0-57-67-76-132-76h-66m-1-58h64c84 0 154-15 154-85s-88-84-147-84c-28 0-46 1-71 4z" horiz-adv-x="500" unicode="в"/><glyph d="M71 484V0h87v413h210v71z" horiz-adv-x="385" unicode="г"/><glyph d="M125 484V358c0-68-9-133-28-193q-16.5-52.5-48-99L8 65l4-219h69L85 0h335l4-154h69l5 219-50 1v418m-245-67h159V67H139c15 27 29 57 39 90 16 54 25 116 25 180z" horiz-adv-x="530" unicode="д"/><glyph d="M462 226c1 9 3 23 3 41 0 89-42 228-200 228-141 0-227-115-227-261S127-11 276-11c77 0 130 17 161 31l-15 63c-33-14-71-25-134-25-88 0-164 49-166 168m1 63c7 61 46 143 135 143 99 0 123-87 122-143z" horiz-adv-x="501" unicode="е"/><glyph d="M176 570c29 0 49 24 49 51 0 29-21 51-49 51s-51-23-51-51c0-27 21-51 50-51m186 0c29 0 49 24 49 51 0 29-21 51-49 51s-50-23-50-51c0-27 20-51 49-51m102-344c1 9 3 23 3 41 0 89-42 228-200 228-141 0-227-115-227-261S127-11 276-11c77 0 130 17 161 31l-15 63c-33-14-71-25-134-25-88 0-164 49-166 168m1 63c7 61 46 143 135 143 99 0 123-87 122-143z" horiz-adv-x="501" unicode="ё"/><glyph d="m13 484 192-220c-73-8-116-51-146-129C42 90 26 39 6 0h85c17 30 30 68 46 110 30 79 71 104 139 104h16V0h84v214h15c63 0 108-24 138-103 14-42 28-82 44-111h88c-20 38-36 89-53 136-29 77-72 120-145 128l191 220H553L393 273h-17v211h-84V273h-18L114 484z" horiz-adv-x="667" unicode="ж"/><glyph d="M113 221h44c73 0 141-18 141-83 0-48-46-83-119-83-46 0-93 14-128 33L28 29C71 5 128-10 185-10c102 0 209 39 209 144 0 71-60 115-132 121v2c54 11 109 50 109 110 0 94-90 127-164 127-56 0-112-14-161-44l22-54c34 21 78 34 117 34 55 0 94-27 94-70 0-45-50-79-124-79h-42z" horiz-adv-x="431" unicode="з"/><glyph d="M71 484V0h101c52 85 105 178 151 253 28 49 49 88 80 150h3c-4-78-6-119-6-198V0h84v484H381L230 234c-32-56-49-90-78-148h-3c4 69 5 117 5 194v204z" horiz-adv-x="554" unicode="и"/><glyph d="M71 484V0h101c52 85 105 178 151 253 28 49 49 88 80 150h3c-4-78-6-119-6-198V0h84v484H381L230 234c-32-56-49-90-78-148h-3c4 69 5 117 5 194v204m-7 197c4-69 38-124 126-124 77 0 128 42 133 124h-64c-4-44-24-76-67-76-41 0-62 33-64 76z" horiz-adv-x="554" unicode="й"/><glyph d="M73 484V0h87v213h17c82 0 127-36 160-114 15-40 32-78 45-99h92c-22 39-39 86-52 118-38 87-85 139-163 147l211 219H363L181 274h-21v210z" horiz-adv-x="479" unicode="к"/><glyph d="M100 484V291c0-108-5-176-50-208C38 73 19 65 2 63l9-70c45 0 72 11 96 31 63 41 76 131 76 267v123h166V0h87v484z" horiz-adv-x="507" unicode="л"/><glyph d="M42 0h81l12 229c3 53 6 117 8 174h4c12-45 33-115 48-161L281 3h64l93 244c27 74 40 113 53 157h3c2-59 6-121 9-173L514 0h84l-34 484H455l-78-211c-19-53-46-130-57-166h-2c-11 38-32 97-44 133l-88 244H78z" horiz-adv-x="639" unicode="м"/><glyph d="M71 484V0h87v219h230V0h87v484h-87V289H158v195z" horiz-adv-x="546" unicode="н"/><glyph d="M278 495c-134 0-240-95-240-257C38 85 139-11 270-11c117 0 241 78 241 257 0 148-94 249-233 249m-2-66c104 0 145-104 145-186 0-109-63-188-147-188-86 0-147 80-147 186 0 92 45 188 149 188" horiz-adv-x="549" unicode="о"/><glyph d="M71 484V0h87v414h225V0h88v484z" horiz-adv-x="541" unicode="п"/><glyph d="M73-198h87V65h2c29-48 85-76 149-76 114 0 220 86 220 260 0 147-88 246-205 246-79 0-136-35-172-94h-2l-4 83H69c2-46 4-96 4-158m87-46c0 12 3 25 6 36 17 66 73 109 133 109 93 0 144-83 144-180 0-111-54-187-147-187-63 0-116 42-132 103-2 11-4 23-4 36z" horiz-adv-x="569" unicode="р"/><glyph d="M403 84c-25-11-58-24-108-24-96 0-168 69-168 181 0 101 60 183 171 183 48 0 81-11 102-23l20 68c-24 12-70 25-122 25-158 0-260-108-260-257C38 89 133-11 279-11c65 0 116 17 139 29z" horiz-adv-x="448" unicode="с"/><glyph d="M11 484v-70h151V0h87v414h151v70z" horiz-adv-x="411" unicode="т"/><glyph d="M9 484 188 38c4-11 6-18 6-23s-3-12-7-21c-20-45-50-79-74-98-26-22-55-36-77-43l22-74c22 4 65 19 108 57 60 52 103 137 166 303l132 345h-93l-96-284c-12-35-22-72-31-101h-2c-8 29-20 67-31 99L105 484z" horiz-adv-x="471" unicode="у"/><glyph d="m280 708 1-215C145 482 38 398 38 238 38 87 141-1 281-10l-1-188h82L361-9c135 9 243 93 243 252 0 151-102 240-243 250l1 215M281 51c-96 12-156 90-156 190 0 99 58 179 156 192m80 0c97-14 156-90 156-190 0-99-59-179-156-192z" horiz-adv-x="641" unicode="ф"/><glyph d="m16 484 164-237L8 0h97l70 109c18 29 35 54 51 84h2c17-29 33-56 52-84L351 0h100L281 250l165 234h-95l-68-103c-16-26-32-51-48-80h-3c-16 27-31 52-49 79l-69 104z" horiz-adv-x="463" unicode="х"/><glyph d="M71 484V0h370l4-154h68l5 219-50 1v418h-87V69H158v415z" horiz-adv-x="550" unicode="ц"/><glyph d="M65 484V310c0-110 67-157 159-157 46 0 98 15 131 37h2V-6h87v490h-87V251c-27-19-66-33-104-33-77 0-100 42-100 103v163z" horiz-adv-x="515" unicode="ч"/><glyph d="M71 484V0h597v484h-87V69H412v415h-86V69H157v415z" horiz-adv-x="738" unicode="ш"/><glyph d="M71 484V0h569l4-154h68l5 219-49 1v418h-87V69H412v415h-86V69H157v415z" horiz-adv-x="749" unicode="щ"/><glyph d="M14 484v-69h143V2c37-4 82-7 130-7 71 0 152 10 205 55 31 26 51 61 51 112 0 125-115 163-215 163-30 0-60-1-83-4v163m-1-227c21 3 40 5 62 5 70 0 149-20 149-103 0-77-72-102-145-102-29 0-48 2-66 5z" horiz-adv-x="579" unicode="ъ"/><glyph d="M71 484V2c36-4 81-7 130-7 64 0 142 11 195 56 31 26 50 61 50 112 0 119-105 162-209 162-32 0-60-2-79-6v165m0-227c18 3 40 5 65 5 66 0 136-24 136-102 0-75-73-103-140-103-25 0-44 2-61 4m349 423V0h87v484z" horiz-adv-x="665" unicode="ы"/><glyph d="M71 484V2c36-4 81-7 130-7 71 0 157 11 210 56 31 26 51 61 51 111 0 129-115 163-224 163-26 0-59-1-80-5v164m0-227c20 3 40 5 63 5 65 0 153-18 153-102 0-81-85-103-151-103-29 0-48 2-65 4z" horiz-adv-x="498" unicode="ь"/><glyph d="M93 216h243c-8-96-73-157-170-157-57 0-98 16-121 26L28 22c39-20 89-33 141-33 164 0 257 110 257 251 0 79-25 143-66 186-43 45-106 69-176 69-51 0-107-14-149-38l19-57c26 12 65 27 116 27 108 0 159-68 167-151H93z" horiz-adv-x="464" unicode="э"/><glyph d="M71 484V0h86v213h81C248 75 333-11 449-11c122 0 218 100 218 257 0 149-86 249-212 249-116 0-200-87-215-215h-83v204M450 54c-85 0-128 91-128 185 0 98 45 190 130 190 86 0 127-94 127-185 0-92-40-190-128-190z" horiz-adv-x="705" unicode="ю"/><glyph d="M426 480c-42 5-98 10-156 10-63 0-122-10-162-33-37-21-64-55-64-105 0-74 65-113 128-120v-3c-22-4-40-15-55-28-43-36-55-99-76-146-9-21-19-39-30-55h94c7 12 14 25 20 40 19 47 32 107 68 136 19 17 44 27 81 27h65V0h87m-87 263h-75c-52 0-129 22-129 84 0 67 71 84 131 84 31 0 51-2 73-5z" horiz-adv-x="496" unicode="я"/><glyph d="M71 484V0h87v414h211l6 179h-63l-12-109z" horiz-adv-x="392" unicode="ґ"/><glyph d="M7 625v-63h82V0h88v305c0 24 5 41 15 55 28 34 68 58 107 58 40 0 72-22 92-54 30-50 38-110 38-170 0-105-24-179-59-219-27-30-56-42-94-50l17-69c46 5 90 26 125 56 62 52 99 152 99 287 0 80-14 156-53 212-31 49-78 78-138 78-59 0-112-30-147-69h-2v142h226v63H177v85H89v-85z" horiz-adv-x="557" unicode="ђ"/><glyph d="M71 484V0h87v413h210v71M250 693l-88-143h63l122 143z" horiz-adv-x="385" unicode="ѓ"/><glyph d="M432 463c-23 13-72 32-130 32-154 0-264-103-264-258C38 97 129-11 285-11c69 0 123 19 147 32l-18 62c-23-10-63-25-115-25-96 0-163 62-170 158h244v60H128c10 83 67 151 173 151 51 0 87-16 110-27z" horiz-adv-x="460" unicode="є"/><glyph d="M39 23c34-20 83-34 136-34 115 0 181 61 181 146 0 72-43 114-127 146-63 24-92 42-92 82 0 36 29 66 81 66 45 0 80-16 99-28l22 64c-27 16-70 30-119 30-104 0-167-64-167-142 0-58 41-106 128-137 65-24 90-47 90-89 0-40-30-72-94-72-44 0-90 18-116 35z" horiz-adv-x="396" unicode="ѕ"/><glyph d="M161 0v484H73V0m44 675c-32 0-55-24-55-55 0-30 22-54 53-54 35 0 57 24 56 54 0 31-21 55-54 55" horiz-adv-x="234" unicode="і"/><glyph d="M25 570c29 0 49 24 49 51 0 29-21 51-49 51s-51-23-51-51c0-27 21-51 50-51m186 0c29 0 49 24 49 51 0 29-21 51-49 51s-50-23-50-51c0-27 20-51 49-51M161 0v484H73V0z" horiz-adv-x="234" unicode="ї"/><glyph d="M-36-211c47 0 111 16 150 55 43 44 58 105 58 199v441H84V77c0-116-9-155-33-182-21-23-56-34-96-37m174 817c-33 0-56-24-56-55 0-29 21-54 54-54 35 0 56 25 55 54 0 31-21 55-53 55" horiz-adv-x="243" unicode="ј"/><glyph d="M105 484V291c0-106-9-177-55-209-11-9-31-17-48-19l9-70c45 0 72 12 95 30 63 42 81 132 81 268v123h162V2c37-4 84-7 131-7 70 0 158 11 210 56 30 26 49 61 49 110 0 126-115 163-223 163-25 0-58-1-79-4v164m-1-228c21 3 42 6 70 6 62 0 145-20 145-103 0-80-85-102-150-102-28 0-47 2-65 4z" horiz-adv-x="775" unicode="љ"/><glyph d="M71 484V0h87v236h204V1c36-3 83-6 131-6 70 0 152 9 204 54 30 26 49 61 49 111 0 121-115 161-214 161-28 0-62-3-82-6v169h-88V304H158v180m291-231c20 3 41 5 66 5 66 0 144-20 144-101 0-78-81-100-144-100-30 0-49 2-66 4z" horiz-adv-x="782" unicode="њ"/><glyph d="M7 625v-63h82V0h88v283c0 17 2 34 6 46 16 45 59 88 118 88 83 0 112-66 112-144V0h88v283c0 135-68 206-169 206q-52.5 0-93-24c-23-15-44-35-60-59h-2v156h202v63H177v85H89v-85z" horiz-adv-x="571" unicode="ћ"/><glyph d="M73 484V0h87v213h17c82 0 127-36 160-114 15-40 32-78 45-99h92c-22 39-39 86-52 118-38 87-85 139-163 147l211 219H363L181 274h-21v210m120 209-88-143h63l122 143z" horiz-adv-x="479" unicode="ќ"/><glyph d="M106 681c4-69 38-124 126-124 77 0 128 42 133 124h-64c-4-44-24-76-67-76-41 0-62 33-64 76M9 484 188 38c4-11 6-18 6-23s-3-12-7-21c-20-45-50-79-74-98-26-22-55-36-77-43l22-74c22 4 65 19 108 57 60 52 103 137 166 303l132 345h-93l-96-284c-12-35-22-72-31-101h-2c-8 29-20 67-31 99L105 484z" horiz-adv-x="471" unicode="ў"/><glyph d="M76 674V0h199l7-174h72l8 174h199v674h-87V73H163v601z" horiz-adv-x="635" unicode="Џ"/><glyph d="M71 484V0h157l7-157h70l6 157h157v484h-88V69H158v415z" horiz-adv-x="538" unicode="џ"/><glyph d="M78 400c35 15 73 26 136 26 90 0 162-49 164-169H39c-2-9-3-23-3-41 0-89 41-227 199-227 141 0 227 115 227 261 0 145-89 245-237 245-77 0-131-18-162-33m314-268c-7-61-44-141-135-141-98 0-123 86-122 141z" horiz-adv-x="328" unicode="ә"/><glyph d="M194 511c0 100 33 141 69 141s62-27 62-93c0-89-49-179-131-263m238-145c-25-36-71-87-136-87-59 0-100 34-102 134v14c132 117 204 226 204 348 0 93-50 154-130 154-89 0-158-63-158-219V231c-25-21-52-40-79-59l26-49c18 12 36 24 55 37v-8c10-94 60-162 163-162 86 0 153 39 200 121z" horiz-adv-x="504" unicode="ℓ"/><glyph d="M728 640c-86 0-159-64-159-177 0-109 69-171 158-171 80 0 158 51 158 176 0 104-60 172-156 172m-2-50c62 0 86-66 86-124 0-73-33-125-86-125-47 0-86 52-86 123 0 60 27 126 85 126m133-393v52H596v-52M152 0v269c0 115-2 194-6 278l3 1c30-74 65-148 102-220L423 0h89v654h-78V388c0-104 2-184 9-275l-1-1c-28 68-62 140-102 217L170 654H74V0z" horiz-adv-x="916" unicode="№"/><glyph d="m95 693 122-143h62l-87 143m221-396c0 97-36 198-184 198-61 0-119-17-159-43l20-58c34 22 81 36 126 36 99 0 110-72 110-112v-10c-187 1-291-63-291-180C35 58 85-11 183-11c69 0 121 34 148 72h3l7-61h80c-6 33-8 74-8 116m-85 47c0-9-2-19-5-28-14-41-54-81-117-81-45 0-83 27-83 84 0 94 109 111 205 109z" horiz-adv-x="482" unicode="à"/><glyph d="M416 484c-4-24-7-48-9-86h-4c-26 61-79 97-149 97-112 0-216-105-216-263C38 85 121-11 236-11c77 0 133 44 165 102h3c5-74 40-102 83-102 10 0 24 1 30 4l7 63c-34 1-48 25-48 82 0 129 8 295 13 346M127 235c0 110 56 191 138 191 64 0 112-59 124-124 4-17 4-33 4-52 0-27-1-46-6-68-15-64-68-123-129-123-84 0-131 84-131 175z" horiz-adv-x="551" unicode="α"/><glyph d="m286 686-54-143h59l83 143m42-202c-4-24-7-48-9-86h-4c-26 61-79 97-149 97-112 0-216-105-216-263C38 85 121-11 236-11c77 0 133 44 165 102h3c5-74 40-102 83-102 10 0 24 1 30 4l7 63c-34 1-48 25-48 82 0 129 8 295 13 346M127 235c0 110 56 191 138 191 64 0 112-59 124-124 4-17 4-33 4-52 0-27-1-46-6-68-15-64-68-123-129-123-84 0-131 84-131 175z" horiz-adv-x="551" unicode="ά"/><glyph d="M129 643v-57h225v57m59-346c0 97-36 198-184 198-61 0-119-17-159-43l20-58c34 22 81 36 126 36 99 0 110-72 110-112v-10c-187 1-291-63-291-180C35 58 85-11 183-11c69 0 121 34 148 72h3l7-61h80c-6 33-8 74-8 116m-85 47c0-9-2-19-5-28-14-41-54-81-117-81-45 0-83 27-83 84 0 94 109 111 205 109z" horiz-adv-x="482" unicode="ā"/><glyph d="M602 0c-40 43-75 81-111 119 50 59 79 143 97 249h-80c-13-85-34-150-65-197-43 48-107 122-164 188v3c107 53 148 109 148 180 0 87-65 143-149 143-112 0-171-84-171-166 0-48 21-97 56-141v-3C86 333 31 270 31 178 31 77 107-11 238-11c74 0 139 23 197 77 26-28 44-47 63-66M253 55c-81 0-138 59-138 136 0 71 51 114 87 137 75-86 150-168 190-212-32-35-81-61-138-61m18 570c55 0 78-46 78-87 0-57-44-93-112-132-29 36-51 73-51 121 0 52 29 98 84 98z" horiz-adv-x="605" unicode="&amp;"/><glyph d="M108 251c39 0 64 30 64 68 0 40-25 68-63 68s-64-28-64-68c-1-38 26-68 62-68z" horiz-adv-x="217" unicode="·"/><glyph d="M413 297c0 97-36 198-184 198-61 0-119-17-159-43l20-58c34 22 81 36 126 36 99 0 110-72 110-112v-10c-187 1-291-63-291-180C35 58 85-11 183-11c69 0 121 34 148 72h3l7-58c-18-28-48-74-48-124 0-55 38-85 89-85 27 0 60 7 83 24l-14 46c-13-6-27-10-46-10-28 0-48 17-48 50 0 35 24 76 39 96h25c-6 32-8 71-8 116m-85 47c0-9-2-19-5-28-14-41-54-81-117-81-45 0-83 27-83 84 0 94 109 111 205 109z" horiz-adv-x="482" unicode="ą"/><glyph d="M533 416c-25-26-70-58-116-58-50 0-83 21-113 34-33 13-69 36-128 36-63 0-121-39-153-77l35-42c27 28 72 59 118 59 50 0 84-22 114-34 32-14 70-37 128-37 62 0 120 38 152 78m-32-157c-25-29-70-59-117-59-49 0-83 22-113 34-33 14-69 36-128 36-62 0-121-38-152-76l34-43c27 29 73 59 117 59 51 0 85-22 115-34 33-13 70-36 127-36 62 0 121 38 153 79z" horiz-adv-x="596" unicode="≈"/><glyph d="M240 537c57 0 100 39 100 92s-39 94-99 94c-63 0-102-42-102-95 0-51 41-91 101-91m-1 37c-29 0-49 28-49 54 0 31 18 57 49 57 32 0 52-25 52-55s-20-56-52-56m174-277c0 97-36 198-184 198-61 0-119-17-159-43l20-58c34 22 81 36 126 36 99 0 110-72 110-112v-10c-187 1-291-63-291-180C35 58 85-11 183-11c69 0 121 34 148 72h3l7-61h80c-6 33-8 74-8 116m-85 47c0-9-2-19-5-28-14-41-54-81-117-81-45 0-83 27-83 84 0 94 109 111 205 109z" horiz-adv-x="482" unicode="å"/><glyph d="M536 189 329 650h-62L60 189h70l167 388h2l167-388z" horiz-adv-x="596" unicode="^"/><glyph d="M108 210c2 60 24 85 60 85s73-21 120-44c69-32 105-44 145-44 62 0 120 39 115 151h-60c-1-55-18-84-54-84-37 0-74 18-125 42-67 32-99 45-141 45-69 0-123-51-119-151z" horiz-adv-x="596" unicode="~"/><glyph d="m269 685-61-140h-2l-62 139-61-35 94-122v-2L30 544v-68l148 19v-2L83 371l57-36 65 141h2l60-140 63 36-96 120v2l151-18v68l-151-20v2l95 125z" horiz-adv-x="415" unicode="*"/><glyph d="M448 255c-11-62-64-136-122-136-44 0-66 32-66 76 0 97 71 180 159 180 23 0 40-4 50-7m39-390c-41-23-94-35-151-35-148 0-257 104-257 271 0 203 137 333 300 333 155 0 242-105 242-250 0-116-57-184-108-183-33 1-45 36-30 112l34 181c-26 12-64 21-107 21-139 0-237-113-237-237 0-79 50-126 108-126 60 0 106 29 141 88h4c-3-61 34-88 74-88 94 0 178 88 178 238 0 167-117 290-291 290-222 0-365-179-365-385 0-193 139-313 303-313 67 0 123 11 178 40z" horiz-adv-x="737" unicode="@"/><glyph d="M448 348c-11-62-64-136-122-136-44 0-66 32-66 76 0 97 71 180 159 180 23 0 40-4 50-7m39-390c-41-23-94-35-151-35-148 0-257 104-257 271 0 203 137 333 300 333 155 0 242-105 242-250 0-116-57-184-108-183-33 1-45 36-30 112l34 181c-26 12-64 21-107 21-139 0-237-113-237-237 0-79 50-126 108-126 60 0 106 29 141 88h4c-3-61 34-88 74-88 94 0 178 88 178 238 0 167-117 290-291 290-222 0-365-179-365-385C43 108 182-12 346-12c67 0 123 11 178 40z" horiz-adv-x="737" unicode=""/><glyph d="M163 567c2 28 10 45 26 45 12 0 23-6 43-18 21-11 40-20 61-20 47 0 70 34 69 101h-47c-2-34-12-43-28-43-12 0-26 8-42 17-23 13-40 22-62 22-43 0-70-39-68-104m298-270c0 97-36 198-184 198-61 0-119-17-159-43l20-58c34 22 81 36 126 36 99 0 110-72 110-112v-10c-187 1-291-63-291-180C35 58 85-11 183-11c69 0 121 34 148 72h3l7-61h80c-6 33-8 74-8 116m-85 47c0-9-2-19-5-28-14-41-54-81-117-81-45 0-83 27-83 84 0 94 109 111 205 109z" horiz-adv-x="482" unicode="ã"/><glyph d="M73 125c0-43-2-92-4-125h76l4 80h3c36-64 92-91 162-91 108 0 217 86 217 259 1 147-84 247-204 247-78 0-134-35-165-89h-2v304H73m87-429c0 14 3 26 5 36 18 67 74 108 134 108 94 0 144-83 144-180 0-111-55-186-147-186-64 0-115 42-132 103-2 10-4 21-4 32z" horiz-adv-x="569" unicode="b"/><glyph d="M342-40 70 685H2L274-40z" horiz-adv-x="341" unicode="\"/><glyph d="M86 750V-250h67V750z" horiz-adv-x="239" unicode="|"/><glyph d="M159 50c37-39 87-61 154-61 107 0 209 73 209 207 0 111-72 175-148 191v4c46 23 89 80 89 156 0 104-76 174-175 174-64 0-108-21-142-53-38-36-75-97-75-235V-28c0-70 3-138 15-170h82c-10 41-11 124-11 181v67m-1 393c0 138 43 208 124 208 59 0 102-46 102-117 0-64-38-123-114-128-6-1-11-2-17-2v-60c9 0 18 1 27 0 88-3 156-52 156-148 0-80-57-139-137-139-69 0-118 43-141 80z" horiz-adv-x="560" unicode="β"/><glyph d="M28 262c71 0 81-43 81-74 0-27-4-54-8-81s-8-55-8-82c0-101 62-137 145-137h21v55h-18c-56 1-79 31-79 87 0 24 3 47 7 72 4 24 7 49 7 76 1 64-27 98-72 109v2c45 12 73 44 72 108 0 27-3 52-7 76s-7 48-7 72c0 54 20 85 79 86h18v55h-21c-85 0-145-39-145-131 0-28 4-56 8-84s8-56 8-83c0-36-10-75-81-75z" horiz-adv-x="284" unicode="{"/><glyph d="M28 301c71 0 81-43 81-74 0-27-4-54-8-81s-8-55-8-82C93-37 155-73 238-73h21v55h-18c-56 1-79 31-79 87 0 24 3 47 7 72 4 24 7 49 7 76 1 64-27 98-72 109v2c45 12 73 44 72 108 0 27-3 52-7 76s-7 48-7 72c0 54 20 85 79 86h18v55h-21c-85 0-145-39-145-131 0-28 4-56 8-84s8-56 8-83c0-36-10-75-81-75z" horiz-adv-x="284" unicode=""/><glyph d="M256 313c-71 0-81 39-81 75 0 27 4 55 8 83s8 56 8 84c0 92-61 131-146 131H25v-55h18c58-1 79-32 79-86 0-24-4-48-7-72-4-24-8-49-8-76 0-64 28-96 72-108v-2c-44-11-72-45-72-109 0-27 4-52 8-76 3-25 7-48 7-72 0-56-24-86-80-87H25v-55h21c82 0 145 36 145 137 0 27-4 55-8 82s-8 54-8 81c0 31 10 74 81 74z" horiz-adv-x="284" unicode="}"/><glyph d="M256 352c-71 0-81 39-81 75 0 27 4 55 8 83s8 56 8 84c0 92-61 131-146 131H25v-55h18c58-1 79-32 79-86 0-24-4-48-7-72-4-24-8-49-8-76 0-64 28-96 72-108v-2c-44-11-72-45-72-109 0-27 4-52 8-76 3-25 7-48 7-72 0-56-24-86-80-87H25v-55h21c82 0 145 36 145 137 0 27-4 55-8 82s-8 54-8 81c0 31 10 74 81 74z" horiz-adv-x="284" unicode=""/><glyph d="M265-112v55H150v688h115v55H82v-798z" horiz-adv-x="284" unicode="["/><glyph d="M265-73v55H150v688h115v55H82V-73z" horiz-adv-x="284" unicode=""/><glyph d="M19 686v-55h115V-57H19v-55h183v798z" horiz-adv-x="284" unicode="]"/><glyph d="M19 725v-55h115V-18H19v-55h183v798z" horiz-adv-x="284" unicode=""/><glyph d="M26 682c0-62 36-124 124-124 75 0 124 50 124 124h-52c-3-33-25-69-72-69-41 0-66 30-72 69z" horiz-adv-x="300" unicode="˘"/><glyph d="M26 832c2-60 38-106 123-106 86 0 123 47 125 106h-51c-5-26-24-49-73-49s-67 26-72 49z" horiz-adv-x="300" unicode=""/><glyph d="M21 681c4-69 38-124 126-124 77 0 128 42 133 124h-64c-4-44-24-76-67-76-41 0-62 33-64 76z" horiz-adv-x="301" unicode=""/><glyph d="M22 834c5-66 44-108 126-108 85 0 125 41 130 108h-67c-4-33-15-63-61-63-47 0-57 31-61 63z" horiz-adv-x="300" unicode=""/><glyph d="m192 773-79-131h53l111 131M21 657c1-63 41-124 129-124 75 0 128 49 129 124h-50c-3-34-28-69-79-69-44 0-73 30-79 69z" horiz-adv-x="300" unicode=""/><glyph d="M29 802c7-55 45-103 123-103 79 0 120 50 126 103h-46c-8-27-27-49-79-49-49 0-70 25-76 49m114 94-74-105h54l112 105z" horiz-adv-x="300" unicode=""/><glyph d="m22 773 110-131h54l-80 131M17 657c1-63 41-124 129-124 76 0 128 49 129 124h-49c-3-34-29-69-80-69-44 0-73 30-79 69z" horiz-adv-x="300" unicode=""/><glyph d="m29 896 112-105h54l-74 105m-91-94c7-55 45-103 123-103 79 0 120 50 126 103h-46c-8-27-28-49-79-49-49 0-70 25-76 49z" horiz-adv-x="300" unicode=""/><glyph d="M163 634c26 45 69 54 69 103 0 39-35 71-80 71-49 0-78-30-95-64l32-20c11 17 27 36 47 36s34-14 34-33c0-31-35-40-51-82m-98 12c1-63 41-124 129-124 75 0 128 49 129 124h-50c-3-34-28-69-79-69-44 0-73 30-79 69z" horiz-adv-x="300" unicode=""/><glyph d="M168 778c27 45 69 55 69 104 0 39-34 70-79 70-49 0-78-29-95-64l32-19c11 17 27 35 48 35 19 0 33-13 33-32 0-31-35-41-51-82m-95 12c7-55 46-103 123-103 79 0 120 50 127 103h-47c-8-27-27-49-78-49-50 0-71 25-77 49z" horiz-adv-x="300" unicode=""/><glyph d="M78 698c2 14 9 30 24 30 12 0 24-6 44-16 20-12 39-21 60-21 47 0 70 33 69 96h-47c-2-32-12-41-28-41-12 0-26 8-42 16-23 12-40 22-62 22-43 0-66-37-68-86m-5-41c1-63 39-124 127-124 75 0 126 49 127 124h-49c-3-34-28-70-78-70-43 0-72 31-78 70z" horiz-adv-x="300" unicode=""/><glyph d="M78 836c3 15 9 31 25 31 12 0 23-6 43-17 21-11 40-21 61-21 47 0 69 34 68 96h-46c-3-32-12-40-28-40-12 0-26 7-42 16-24 12-40 21-62 21-43 0-66-36-68-86m-3-34c6-55 45-103 123-103 79 0 120 50 126 103h-47c-8-27-27-49-78-49-49 0-70 25-77 49z" horiz-adv-x="300" unicode=""/><glyph d="M86 174v-350h67v350M86 674V324h67v350z" horiz-adv-x="239" unicode="¦"/><glyph d="M141 157c59 0 105 46 105 105 0 58-47 105-105 105S35 320 36 261c0-59 47-104 104-104z" horiz-adv-x="282" unicode="•"/><glyph d="M403 84c-25-11-58-24-108-24-96 0-168 69-168 181 0 101 60 183 171 183 48 0 81-11 102-23l20 68c-24 12-70 25-122 25-158 0-260-108-260-257C38 89 133-11 279-11c65 0 116 17 139 29z" horiz-adv-x="448" unicode="c"/><glyph d="m302 693-88-143h63l122 143m4-609c-25-11-58-24-108-24-96 0-168 69-168 181 0 101 60 183 171 183 48 0 81-11 102-23l20 68c-24 12-70 25-122 25-158 0-260-108-260-257C38 89 133-11 279-11c65 0 116 17 139 29z" horiz-adv-x="448" unicode="ć"/><glyph d="m183 550 94 143h-66l-59-95h-2l-59 95H23l96-143z" horiz-adv-x="300" unicode="ˇ"/><glyph d="m184 710 103 114h-72l-63-69h-2l-64 69H12l105-114z" horiz-adv-x="300" unicode=""/><glyph d="m294 550 94 143h-66l-59-95h-2l-59 95h-68l96-143M403 84c-25-11-58-24-108-24-96 0-168 69-168 181 0 101 60 183 171 183 48 0 81-11 102-23l20 68c-24 12-70 25-122 25-158 0-260-108-260-257C38 89 133-11 279-11c65 0 116 17 139 29z" horiz-adv-x="448" unicode="č"/><glyph d="M403 84c-24-11-58-24-108-24-96 0-168 69-168 181 0 101 60 183 171 183 48 0 81-11 102-23l20 68c-24 12-70 25-122 25-158 0-260-108-260-257C38 103 117 8 240-7l-42-77c47-5 77-15 78-42 0-24-20-31-43-31-20 0-40 4-55 13l-15-45c19-11 47-17 70-17 54 0 104 23 104 83 0 41-34 66-70 73l25 40c60 1 106 17 127 28z" horiz-adv-x="447" unicode="ç"/><glyph d="m229 693-94-143h65l58 95h2l58-95h68l-96 143M403 84c-25-11-58-24-108-24-96 0-168 69-168 181 0 101 60 183 171 183 48 0 81-11 102-23l20 68c-24 12-70 25-122 25-158 0-260-108-260-257C38 89 133-11 279-11c65 0 116 17 139 29z" horiz-adv-x="448" unicode="ĉ"/><glyph d="M265 570c29 0 49 24 49 51 0 29-21 52-49 52-29 0-51-23-51-52 0-27 21-51 50-51M403 84c-25-11-58-24-108-24-96 0-168 69-168 181 0 101 60 183 171 183 48 0 81-11 102-23l20 68c-24 12-70 25-122 25-158 0-260-108-260-257C38 89 133-11 279-11c65 0 116 17 139 29z" horiz-adv-x="448" unicode="ċ"/><glyph d="M136 2 89-81c47-4 77-16 78-42 0-24-21-32-43-32-18 0-38 5-54 15l-15-43c17-10 43-17 68-17 55 0 104 22 104 81 0 38-33 64-70 69l33 52z" horiz-adv-x="300" unicode="¸"/><glyph d="M136 2 90-84c47-5 78-16 78-43 0-21-19-30-42-30-22 0-41 5-56 13l-14-45c17-10 45-17 71-17 52 0 103 23 103 81 0 41-33 68-71 75l32 52z" horiz-adv-x="300" unicode=""/><glyph d="M330-14V87c49 2 91 18 111 29l-16 63c-24-11-59-25-114-25-88 0-156 65-156 176 0 98 61 178 160 178 50 0 84-13 104-25l20 67c-23 12-64 25-109 25v98h-62V573C146 553 67 455 67 326c0-73 22-131 56-169 36-39 81-62 145-70V-14z" horiz-adv-x="513" unicode="¢"/><glyph d="M206-8v59c28 2 53 10 66 17l-11 47c-15-6-36-13-67-13-50 0-91 34-91 97 0 55 36 97 92 97 30 0 49-8 62-14l13 49c-16 8-39 15-64 15v57h-46v-59C82 332 36 271 36 195c0-41 13-76 34-99 22-24 50-39 90-44V-8z" horiz-adv-x="315" unicode=""/><glyph d="M206-155v59c28 2 53 10 66 17l-11 47c-15-6-36-13-67-13-50 0-91 34-91 97 0 55 36 97 92 97 30 0 49-8 62-14l13 49c-16 8-39 15-64 15v57h-46v-59C82 185 36 124 36 48c0-41 13-76 34-99 22-24 50-39 90-44v-60z" horiz-adv-x="315" unicode=""/><glyph d="M206 258v59c28 2 53 10 66 17l-11 47c-15-6-36-13-67-13-50 0-91 34-91 97 0 55 36 97 92 97 30 0 49-8 62-14l13 49c-16 8-39 15-64 15v57h-46v-59C82 598 36 537 36 461c0-41 13-76 34-99 22-24 50-39 90-44v-60z" horiz-adv-x="315" unicode=""/><glyph d="M206 435v59c28 2 53 10 66 17l-11 47c-15-6-36-13-67-13-50 0-91 34-91 97 0 55 36 97 92 97 30 0 49-8 62-14l13 49c-16 8-39 15-64 15v57h-46v-59C82 775 36 714 36 638c0-41 13-76 34-99 22-24 50-39 90-44v-60z" horiz-adv-x="315" unicode=""/><glyph d="M403 129c-21-9-55-20-102-20-75 0-136 48-136 139 0 84 56 141 140 141 41 0 74-7 94-18l16 60c-20 9-58 20-98 20v66h-55v-68C154 433 81 352 81 244c0-114 73-185 181-197v-73h55v72c44 2 83 15 100 24z" horiz-adv-x="530" unicode=""/><glyph d="m18 484 166-328L11-190l75-23 91 193c18 39 33 74 46 103h4l144-296 82 22-176 348 171 327h-86l-72-154c-21-42-37-76-51-107h-4L112 484z" horiz-adv-x="457" unicode="χ"/><glyph d="M119 693 25 550h65l58 95h2l58-95h68l-96 143z" horiz-adv-x="300" unicode="ˆ"/><glyph d="M116 824 13 710h71l64 69h2l64-69h73L183 824z" horiz-adv-x="300" unicode=""/><glyph d="M82 563c5 43 25 76 68 76 40 0 61-33 64-76h64c-4 69-38 124-126 124-77 0-128-42-133-124z" horiz-adv-x="300" unicode=""/><glyph d="M278 726c-4 62-44 105-126 105-84 0-125-42-130-105l67-1c4 30 15 60 61 60 47 0 57-32 61-60z" horiz-adv-x="300" unicode=""/><glyph d="M117 693 33 550h64l51 94h2l51-94h67l-86 143m127 82-69-132h51l99 132z" horiz-adv-x="300" unicode=""/><glyph d="M121 824 29 710h67l56 70h2l55-70h70l-95 114m131 76-84-105h52l121 105z" horiz-adv-x="300" unicode=""/><glyph d="m189 775 93-132h51l-64 132m-152-82L33 550h64l51 94h2l51-94h67l-86 143z" horiz-adv-x="300" unicode=""/><glyph d="m180 881 109-105h54l-72 105m-154-57L25 710h68l55 70h2l55-70h70l-94 114z" horiz-adv-x="300" unicode=""/><glyph d="M117 693 33 550h64l51 94h2l51-94h67l-86 143m115-58c26 45 69 54 69 103 0 39-35 71-80 71-49 0-78-30-95-64l32-20c11 17 27 36 48 36 19 0 33-14 33-33 0-31-35-40-51-82z" horiz-adv-x="300" unicode=""/><glyph d="M120 824 27 710h68l55 70h2l56-70h70l-95 114m119-70c26 46 69 56 69 104 0 40-34 70-79 70-49 0-78-29-95-64l32-19c11 17 28 37 49 37 19 0 34-14 34-33 0-32-36-42-52-83z" horiz-adv-x="300" unicode=""/><glyph d="M117 668 28 550h67l53 73h2l54-73h69l-92 118M78 680c1 23 10 39 25 39 13 0 24-6 44-17 21-11 39-21 61-21 47 0 69 34 68 96h-47c-2-32-12-40-27-40-13 0-27 7-43 16-23 12-40 22-62 22-42 0-69-38-68-95z" horiz-adv-x="300" unicode=""/><glyph d="M117 824 14 710h72l63 69h2l64-69h73L184 824M79 837c1 24 10 40 25 40 13 0 24-6 44-17 21-11 39-21 61-21 47 0 69 34 68 96h-47c-2-32-12-41-27-41-13 0-27 8-43 16-23 13-40 22-62 22-42 0-69-38-68-95z" horiz-adv-x="300" unicode=""/><glyph d="M111 342c37 0 60 27 60 62-1 37-24 64-59 64s-60-27-60-64c0-35 24-62 58-62m1-353c37 0 60 27 60 62-1 37-24 63-59 63S52 88 52 51c0-35 24-62 58-62z" horiz-adv-x="207" unicode=":"/><glyph d="M79-117c28 47 72 158 95 243l-98-10C65 43 38-64 17-123z" horiz-adv-x="207" unicode=","/><glyph d="M48-67C70-31 97 34 113 89l-74-5C32 35 16-28 0-71z" horiz-adv-x="131" unicode=""/><glyph d="M48-214c22 36 49 101 65 156l-74-5c-7-49-23-112-39-155z" horiz-adv-x="131" unicode=""/><glyph d="M48 199c22 36 49 101 65 156l-74-5c-7-49-23-112-39-155z" horiz-adv-x="131" unicode=""/><glyph d="M48 376c22 36 49 101 65 156l-74-5c-7-49-23-112-39-155z" horiz-adv-x="131" unicode=""/><glyph d="M340 648C170 648 36 510 36 340 36 168 170 30 340 30c169 0 301 138 301 310 0 170-132 308-300 308m-1-41c141 0 251-118 251-267 0-152-110-270-251-269C196 72 86 188 86 337c0 152 110 270 253 270m135-114c-13 12-58 27-110 27-101 0-191-72-191-186 0-101 67-181 183-181 42 0 88 8 123 31l-12 38c-23-15-61-26-101-26-92 0-141 63-141 141 0 80 46 140 140 140 47 0 84-16 97-23z" horiz-adv-x="677" unicode="©"/><glyph d="M256 534c-44 0-86-16-114-41l-69 76-44-46 75-71c-21-28-39-71-39-123 0-49 17-94 37-120l-72-71 43-44 67 74c27-25 73-40 114-40 40 0 87 14 117 43l68-77 45 44-75 74c18 25 35 68 35 123 0 48-16 90-35 117l78 71-44 46-71-75c-28 24-69 40-115 40m-2-63c77 0 118-68 118-137 0-103-63-143-119-143-51 0-118 42-118 139 0 78 45 141 118 141z" horiz-adv-x="513" unicode="¤"/><glyph d="M403 710V421h-2c-22 39-72 74-146 74-118 0-218-99-217-260C38 88 128-11 245-11c79 0 138 41 165 95h2l4-84h79c-3 33-4 82-4 125v585m-88-507c0-14-1-26-4-38-16-66-70-105-129-105-95 0-143 81-143 179 0 107 54 187 145 187 66 0 114-46 127-102 3-11 4-26 4-37z" horiz-adv-x="564" unicode="d"/><glyph d="m209 674 8-211-174 7v-72l174 8-8-456h82l-8 456 174-8v72l-174-7 8 211z" horiz-adv-x="500" unicode="†"/><glyph d="m210 674 6-201-173 8v-72l173 7V212l-173 8v-72l172 7-5-205h81l-7 205 173-7v72l-173-8v204l173-7v72l-173-8 7 201z" horiz-adv-x="500" unicode="‡"/><glyph d="M403 710V421h-2c-22 39-72 74-146 74-118 0-218-99-217-260C38 88 128-11 245-11c79 0 138 41 165 95h2l4-84h79c-3 33-4 82-4 125v585m-88-507c0-14-1-26-4-38-16-66-70-105-129-105-95 0-143 81-143 179 0 107 54 187 145 187 66 0 114-46 127-102 3-11 4-26 4-37m169 235c15 12 67 49 67 124 0 33-18 62-36 73l-63-14c17-15 31-40 31-65 0-41-20-70-36-89z" horiz-adv-x="574" unicode="ď"/><glyph d="M568 552v55h-77v103h-88V607H206v-55h197V421h-2c-22 39-72 74-146 74-118 0-218-99-217-260C38 88 128-11 245-11c79 0 138 41 165 95h2l4-84h79c-3 33-4 82-4 125v427m-88-349c0-14-1-26-4-38-16-66-70-105-129-105-95 0-143 81-143 179 0 107 54 187 145 187 66 0 114-46 127-102 3-11 4-26 4-37z" horiz-adv-x="564" unicode="đ"/><glyph d="M162 686c-74 0-134-59-133-136 0-69 53-128 131-128 69 0 134 53 134 134 0 68-50 130-131 130m-2-47c57 0 79-47 79-85 0-49-34-85-79-85-44 0-78 36-78 82 0 42 26 88 77 88z" horiz-adv-x="318" unicode="°"/><glyph d="M466 673c-29 23-90 48-160 48-113 0-168-59-168-113 0-46 38-81 61-100l23-18v-5C123 438 38 356 38 232 38 77 148-11 273-11c130 0 235 97 235 247 0 96-48 166-128 227l-82 66c-45 36-72 55-72 81 0 24 27 45 82 45s111-25 132-40M326 402c62-48 94-104 94-172 0-110-65-175-142-175-76 0-151 65-151 178 0 106 70 171 146 211z" horiz-adv-x="546" unicode="δ"/><glyph d="M58 570c29 0 49 24 49 51 0 29-21 51-49 51S7 649 7 621c0-27 21-51 50-51m186 0c29 0 49 24 49 51 0 29-21 51-49 51s-50-23-50-51c0-27 20-51 49-51z" horiz-adv-x="300" unicode="¨"/><glyph d="M58 721c29 0 48 23 48 51s-20 50-48 50-49-23-49-50c0-28 19-51 48-51m186 0c30 0 49 23 49 51s-20 50-48 50c-29 0-50-23-50-50 0-28 20-51 48-51z" horiz-adv-x="300" unicode=""/><glyph d="M24 573c28 0 48 21 48 49s-20 50-47 50c-28 0-49-23-49-50 0-26 20-49 47-49m248 0c28 0 48 21 48 49s-20 50-47 50c-28 0-49-23-49-50 0-26 20-49 47-49M151 701 74 558h58l111 143z" horiz-adv-x="301" unicode=""/><glyph d="M13 721c29 0 48 21 48 49s-19 49-46 49-48-22-48-49 19-49 45-49m275 0c29 0 49 21 49 49s-20 49-47 49c-28 0-48-22-48-49s19-49 45-49M142 828 61 711h67l116 117z" horiz-adv-x="301" unicode=""/><glyph d="M28 573c28 0 48 21 48 49s-20 50-47 50-49-23-49-50c0-26 20-49 47-49m242 0c29 0 49 21 49 49s-20 50-48 50c-27 0-48-23-48-50 0-26 19-49 46-49M56 701l112-143h57l-77 143z" horiz-adv-x="301" unicode=""/><glyph d="M13 721c29 0 48 21 48 49s-19 49-46 49c-28 0-48-22-48-49s19-49 45-49m275 0c29 0 48 21 48 49s-19 49-46 49c-28 0-48-22-48-49s19-49 45-49M57 828l116-117h67l-81 117z" horiz-adv-x="301" unicode=""/><glyph d="m153 710-22-157h48l49 157M51 573c27 0 46 22 46 48 0 27-20 47-45 47-27 0-48-21-48-47s19-48 46-48m243 0c28 0 46 22 46 48 0 27-19 47-46 47-26 0-47-21-47-47s19-48 46-48z" horiz-adv-x="346" unicode="΅"/><glyph d="M298 387c33 0 53 24 53 55 0 33-21 56-52 56-32 0-54-23-54-56 0-31 21-55 52-55m259-150v60H40v-60M298 36c33 0 53 24 53 55 0 33-21 56-52 56-32 0-54-23-54-56 0-31 21-55 52-55z" horiz-adv-x="596" unicode="÷"/><glyph d="M281-86V18c103 17 158 91 158 170 0 89-52 141-155 183-87 36-124 62-124 114 0 40 29 86 106 86 64 0 105-22 126-34l25 66c-29 17-70 33-130 35v97h-62V634c-92-15-151-78-151-161 0-87 63-133 165-173 74-30 113-64 113-119 0-57-48-98-119-98-56 0-108 19-144 43L65 59c35-25 95-43 153-44V-86z" horiz-adv-x="513" unicode="$"/><glyph d="M179-51v61c66 11 101 56 101 105 0 54-31 86-98 110-56 21-76 35-76 62 0 22 15 46 61 46 41 0 69-14 82-22l16 49c-18 10-46 21-83 22v56h-45v-59c-60-10-96-49-96-100 0-55 39-82 105-106 47-18 68-34 68-64s-27-51-69-51c-36 0-69 12-93 27L35 34C58 20 96 8 134 8v-59z" horiz-adv-x="317" unicode=""/><glyph d="M179-198v61c66 11 101 56 101 105 0 54-31 86-98 110-56 21-76 35-76 62 0 22 15 46 61 46 41 0 69-14 82-22l16 49c-18 10-46 21-83 22v56h-45v-59c-60-10-96-49-96-100 0-55 39-82 105-106 47-18 68-34 68-64s-27-51-69-51c-36 0-69 12-93 27l-17-51c23-14 61-26 99-26v-59z" horiz-adv-x="317" unicode=""/><glyph d="M179 215v61c66 11 101 56 101 105 0 54-31 86-98 110-56 21-76 35-76 62 0 22 15 46 61 46 41 0 69-14 82-22l16 49c-18 10-46 21-83 22v56h-45v-59c-60-10-96-49-96-100 0-55 39-82 105-106 47-18 68-34 68-64s-27-51-69-51c-36 0-69 12-93 27l-17-51c23-14 61-26 99-26v-59z" horiz-adv-x="317" unicode=""/><glyph d="M179 392v61c66 11 101 56 101 105 0 54-31 86-98 110-56 21-76 35-76 62 0 22 15 46 61 46 41 0 69-14 82-22l16 49c-18 10-46 21-83 22v56h-45v-59c-60-10-96-49-96-100 0-55 39-82 105-106 47-18 68-34 68-64s-27-51-69-51c-36 0-69 12-93 27l-17-51c23-14 61-26 99-26v-59z" horiz-adv-x="317" unicode=""/><glyph d="M295-81V1c96 14 149 75 149 138 0 65-46 108-146 140-86 29-109 47-109 83 0 37 42 61 96 61 48 0 93-16 116-30l24 60c-25 14-70 30-124 32v83h-57v-86c-85-10-143-60-143-126 0-68 50-103 153-138 71-24 100-44 100-84 0-44-48-71-106-71-48 0-105 16-134 36L90 38c34-22 94-38 148-39v-80z" horiz-adv-x="530" unicode=""/><glyph d="M89 98V39h337v59m-80 566v-68H219v-49h127v-86h-2c-19 28-56 51-108 51-93 0-169-70-168-185 0-104 68-174 158-174 60 0 103 27 125 65h2l3-57h69c-2 23-3 58-3 89v297h62v49h-62v68m-76-353c0-9-2-19-4-27-11-44-52-71-96-71-64 0-99 52-99 118 0 71 38 122 103 122 47 0 83-32 93-69 2-7 3-18 3-26z" horiz-adv-x="513" unicode="₫"/><glyph d="M346 664v-68H219v-49h127v-86h-2c-19 28-56 51-108 51-93 0-169-70-168-185 0-104 68-174 158-174 60 0 103 27 125 65h2l3-57h69c-2 23-3 58-3 89v297h62v49h-62v68m-76-353c0-9-2-19-4-27-11-44-52-71-96-71-64 0-99 52-99 118 0 71 38 122 103 122 47 0 83-32 93-69 2-7 3-18 3-26z" horiz-adv-x="513" unicode=""/><glyph d="M140 570c29 0 49 24 49 51 0 29-21 52-49 52-29 0-51-23-51-52 0-27 21-51 50-51z" horiz-adv-x="300" unicode="˙"/><glyph d="M151 721c28 0 49 25 49 51s-21 50-48 50c-29 0-51-24-51-50s22-51 49-51z" horiz-adv-x="300" unicode=""/><glyph d="M161 0v484H73V0z" horiz-adv-x="234" unicode="ı"/><glyph d="M462 226c1 9 3 23 3 41 0 89-42 228-200 228-141 0-227-115-227-261S127-11 276-11c77 0 130 17 161 31l-15 63c-33-14-71-25-134-25-88 0-164 49-166 168m1 63c7 61 46 143 135 143 99 0 123-87 122-143z" horiz-adv-x="501" unicode="e"/><glyph d="m304 693-88-143h63l122 143m61-467c1 9 3 23 3 41 0 89-42 228-200 228-141 0-227-115-227-261S127-11 276-11c77 0 130 17 161 31l-15 63c-33-14-71-25-134-25-88 0-164 49-166 168m1 63c7 61 46 143 135 143 99 0 123-87 122-143z" horiz-adv-x="501" unicode="é"/><glyph d="M129 682c0-62 36-124 124-124 75 0 124 50 124 124h-52c-3-33-25-69-72-69-41 0-66 30-72 69m281-456c1 9 3 23 3 41 0 89-42 228-200 228-141 0-227-115-227-261S127-11 276-11c77 0 130 17 161 31l-15 63c-33-14-71-25-134-25-88 0-164 49-166 168m1 63c7 61 46 143 135 143 99 0 123-87 122-143z" horiz-adv-x="501" unicode="ĕ"/><glyph d="m286 550 94 143h-66l-59-95h-2l-59 95h-68l96-143m240-324c1 9 3 23 3 41 0 89-42 228-200 228-141 0-227-115-227-261S127-11 276-11c77 0 130 17 161 31l-15 63c-33-14-71-25-134-25-88 0-164 49-166 168m1 63c7 61 46 143 135 143 99 0 123-87 122-143z" horiz-adv-x="501" unicode="ě"/><glyph d="m232 693-94-143h65l58 95h2l58-95h68l-96 143m169-467c1 9 3 23 3 41 0 89-42 228-200 228-141 0-227-115-227-261S127-11 276-11c77 0 130 17 161 31l-15 63c-33-14-71-25-134-25-88 0-164 49-166 168m1 63c7 61 46 143 135 143 99 0 123-87 122-143z" horiz-adv-x="501" unicode="ê"/><glyph d="M176 570c29 0 49 24 49 51 0 29-21 51-49 51s-51-23-51-51c0-27 21-51 50-51m186 0c29 0 49 24 49 51 0 29-21 51-49 51s-50-23-50-51c0-27 20-51 49-51m102-344c1 9 3 23 3 41 0 89-42 228-200 228-141 0-227-115-227-261S127-11 276-11c77 0 130 17 161 31l-15 63c-33-14-71-25-134-25-88 0-164 49-166 168m1 63c7 61 46 143 135 143 99 0 123-87 122-143z" horiz-adv-x="501" unicode="ë"/><glyph d="M255 570c29 0 49 24 49 51 0 29-21 52-49 52-29 0-51-23-51-52 0-27 21-51 50-51m208-344c1 9 3 23 3 41 0 89-42 228-200 228-141 0-227-115-227-261S127-11 276-11c77 0 130 17 161 31l-15 63c-33-14-71-25-134-25-88 0-164 49-166 168m1 63c7 61 46 143 135 143 99 0 123-87 122-143z" horiz-adv-x="501" unicode="ė"/><glyph d="m135 693 122-143h62l-87 143m230-467c1 9 3 23 3 41 0 89-42 228-200 228-141 0-227-115-227-261S127-11 276-11c77 0 130 17 161 31l-15 63c-33-14-71-25-134-25-88 0-164 49-166 168m1 63c7 61 46 143 135 143 99 0 123-87 122-143z" horiz-adv-x="501" unicode="è"/><glyph d="M166 339C86 305 37 247 37 165c0-95 82-176 218-176 124 0 221 76 221 189 0 79-50 136-131 168v3c80 38 107 97 107 152 0 81-63 160-189 160-114 0-201-70-201-173 0-56 31-112 103-146m92-289c-83 0-133 58-130 124 0 62 41 112 117 134 88-25 143-63 143-142 0-66-51-116-130-116m1 545c79 0 110-54 110-106 0-59-43-99-99-118-75 20-124 55-124 120 0 56 40 104 113 104" horiz-adv-x="513" unicode="8"/><glyph d="M167 395c-73 0-129-43-129-105 0-35 20-67 62-87v-2c-47-20-76-52-76-100C24 46 72-5 162-5c83 0 142 46 142 115 0 48-33 81-78 98v2c45 20 63 55 63 88 0 49-40 97-121 97m-4-353c-46 0-73 32-73 67 0 33 24 60 66 72 47-13 79-33 79-76 0-36-28-63-71-63m0 307c43 0 61-30 61-58 0-32-24-54-55-63-43 11-70 30-70 65 0 30 22 56 63 56z" horiz-adv-x="328" unicode=""/><glyph d="M166 339C86 305 37 247 37 165c0-95 82-176 218-176 124 0 221 76 221 189 0 79-50 136-131 168v3c80 38 107 97 107 152 0 81-63 160-189 160-114 0-201-70-201-173 0-56 31-112 103-146m92-289c-83 0-133 58-130 124 0 62 41 112 117 134 88-25 143-63 143-142 0-66-51-116-130-116m1 545c79 0 110-54 110-106 0-59-43-99-99-118-75 20-124 55-124 120 0 56 40 104 113 104" horiz-adv-x="513" unicode=""/><glyph d="M167 248c-73 0-129-43-129-105 0-35 20-67 62-87v-2C53 34 24 2 24-46c0-55 48-106 138-106 83 0 142 46 142 115 0 48-33 81-78 98v2c45 20 63 55 63 88 0 49-40 97-121 97m-4-353c-46 0-73 32-73 67 0 33 24 60 66 72 47-13 79-33 79-76 0-36-28-63-71-63m0 307c43 0 61-30 61-58 0-32-24-54-55-63-43 11-70 30-70 65 0 30 22 56 63 56z" horiz-adv-x="328" unicode="₈"/><glyph d="M167 661c-73 0-129-43-129-105 0-35 20-67 62-87v-2c-47-20-76-52-76-100 0-55 48-106 138-106 83 0 142 46 142 115 0 48-33 81-78 98v2c45 20 63 55 63 88 0 49-40 97-121 97m-4-353c-46 0-73 32-73 67 0 33 24 60 66 72 47-13 79-33 79-76 0-36-28-63-71-63m0 307c43 0 61-30 61-58 0-32-24-54-55-63-43 11-70 30-70 65 0 30 22 56 63 56z" horiz-adv-x="328" unicode=""/><glyph d="M343 320c71 34 106 78 106 136 0 84-74 151-187 151-111 0-197-66-197-162 0-63 44-105 101-129v-3C92 280 41 228 41 155c0-97 87-166 213-166 120 0 218 69 218 177 0 71-53 124-129 151m-82 230c54 0 106-32 106-95 0-56-43-92-97-108-75 20-120 54-120 108 0 58 50 95 110 95m-5-495c-78 0-126 47-126 112 0 55 45 101 111 123 91-24 142-66 142-129S326 52 256 52z" horiz-adv-x="513" unicode=""/><glyph d="M167 838c-73 0-129-43-129-105 0-35 20-67 62-87v-2c-47-20-76-52-76-100 0-55 48-106 138-106 83 0 142 46 142 115 0 48-33 81-78 98v2c45 20 63 55 63 88 0 49-40 97-121 97m-4-353c-46 0-73 32-73 67 0 33 24 60 66 72 47-13 79-33 79-76 0-36-28-63-71-63m0 307c43 0 61-30 61-58 0-32-24-54-55-63-43 11-70 30-70 65 0 30 22 56 63 56z" horiz-adv-x="328" unicode="⁸"/><glyph d="M350 320c71 34 106 78 106 136 0 84-74 151-187 151-111 0-197-66-197-162 0-63 44-105 101-129v-3C99 280 48 228 48 155c0-97 87-166 213-166 120 0 218 69 218 177 0 71-53 124-129 151m-82 230c54 0 106-32 106-95 0-56-43-92-97-108-75 20-120 54-120 108 0 58 50 95 110 95m-5-495c-78 0-126 47-126 112 0 55 45 101 111 123 91-24 142-66 142-129S333 52 263 52z" horiz-adv-x="530" unicode=""/><glyph d="M167-11c36 0 59 27 59 63 0 37-23 63-59 63-35 0-59-26-59-63-1-36 24-63 58-63m334 0c36 0 60 27 60 63-1 37-24 63-59 63s-60-26-60-63c-1-36 24-63 58-63m334 0c37 0 60 27 60 63 0 37-24 63-59 63s-60-26-60-63c0-36 24-63 58-63z" horiz-adv-x="1000" unicode="…"/><glyph d="M141 643v-57h225v57m96-417c1 9 3 23 3 41 0 89-42 228-200 228-141 0-227-115-227-261S127-11 276-11c77 0 130 17 161 31l-15 63c-33-14-71-25-134-25-88 0-164 49-166 168m1 63c7 61 46 143 135 143 99 0 123-87 122-143z" horiz-adv-x="501" unicode="ē"/><glyph d="M30 284v-60h940v60z" horiz-adv-x="1000" unicode="—"/><glyph d="M30 359v-60h940v60z" horiz-adv-x="1000" unicode=""/><glyph d="M30 284v-60h440v60z" horiz-adv-x="500" unicode="–"/><glyph d="M30 359v-60h440v60z" horiz-adv-x="500" unicode=""/><glyph d="M73 0h88v291c0 15 2 30 6 41 15 49 60 90 118 90 83 0 112-65 112-143V51c0-93-40-144-119-160l17-70c107 15 190 84 190 238v230c0 166-104 206-171 206-80 0-136-45-160-91h-2l-5 80H69c3-40 4-81 4-131z" horiz-adv-x="555" unicode="ŋ"/><glyph d="M385-136c-14-6-33-10-47-10-21 0-41 13-41 42 0 41 55 90 94 107 9 3 31 10 46 17l-15 63c-33-14-71-25-134-25-88 0-164 49-166 168h340c1 9 3 23 3 41 0 89-42 228-200 228-141 0-227-115-227-261C38 89 127-10 274-11c10 0 18 1 27 2v-1c-32-23-73-67-73-116 0-50 36-79 90-79 30 0 59 8 81 24M123 289c7 61 46 143 135 143 99 0 123-87 122-143z" horiz-adv-x="501" unicode="ę"/><glyph d="M159 258C88 246 39 196 39 136 39 27 146-11 243-11c68 0 140 19 177 44l-16 60c-29-17-89-37-142-37-71 0-131 31-131 88 0 58 65 82 152 82h61v63h-58c-76 0-135 21-135 69 0 44 45 72 112 72 49 0 101-17 121-30l19 58c-35 24-84 37-147 37-129 0-193-67-193-131 0-48 32-88 96-102z" horiz-adv-x="440" unicode="ε"/><glyph d="m256 686-53-143h58l84 143M159 257C88 246 39 196 39 136 39 27 146-11 243-11c68 0 140 19 177 44l-16 60c-29-17-89-37-142-37-71 0-131 31-131 88 0 58 65 82 152 82h61v63h-58c-76 0-135 21-135 69 0 44 45 72 112 72 49 0 101-17 121-30l19 58c-35 24-84 37-147 37-129 0-193-67-193-131 0-48 32-88 96-102z" horiz-adv-x="440" unicode="έ"/><glyph d="M556 337v60H40v-60m516-196v60H40v-60z" horiz-adv-x="596" unicode="="/><glyph d="M782 316v9c0 186-167 336-373 336S35 511 35 325 203-11 409-11c120 0 228 52 296 131h-55C592 52 506 9 410 9c-90 0-172 38-229 99-5 6-9 13-9 21v183c0 3 2 4 5 4m469 24c0-3-2-5-5-5H177c-3 0-5 2-5 5v180c0 9 4 17 10 23 58 60 138 98 228 98 88 0 168-37 226-95 6-6 10-13 10-22z" horiz-adv-x="817" unicode="℮"/><glyph d="M152 404c0 31-5 61-14 80H59c11-33 14-82 14-131V0h88v291c0 15 2 30 6 41 15 49 60 90 118 90 83 0 112-65 112-143V-21c0-64 3-147 15-177h83c-10 40-10 124-10 180v307c0 166-104 206-171 206-80 0-136-45-160-91z" horiz-adv-x="555" unicode="η"/><glyph d="m301 686-53-143h58l84 143M152 404c0 31-5 61-14 80H59c11-33 14-82 14-131V0h88v291c0 15 2 30 6 41 15 49 60 90 118 90 83 0 112-65 112-143V-21c0-64 3-147 15-177h83c-10 40-10 124-10 180v307c0 166-104 206-171 206-80 0-136-45-160-91z" horiz-adv-x="555" unicode="ή"/><glyph d="M267 55c-81 0-140 80-140 182 0 80 40 187 144 187 51 0 84-22 106-47 25-31 34-71 34-134 0-110-56-188-143-188M116 507l142 66c51-38 89-81 118-129l-2-3c-38 36-75 43-113 43-115-1-223-92-223-248C38 85 136-11 267-11c116 0 235 78 234 264 0 74-15 138-42 194-29 60-73 114-128 159l106 50-21 44-128-61c-43 31-93 59-141 81l-38-55c37-18 74-38 104-60L97 550z" horiz-adv-x="541" unicode="ð"/><glyph d="m149 194 14 480H67l14-480m34-205c36 0 59 27 59 62 0 36-23 62-59 62-34 0-59-26-59-62 0-35 24-62 58-62z" horiz-adv-x="230" unicode="!"/><glyph d="m164-195-15 477H81L67-195m49 683c-35 0-60-26-60-62 0-35 24-62 59-62 36 0 59 27 59 62 0 36-23 62-57 62z" horiz-adv-x="230" unicode="¡"/><glyph d="m164 0-15 477H81L67 0m49 683c-35 0-60-26-60-62 0-35 24-62 59-62 36 0 59 27 59 62 0 36-23 62-57 62z" horiz-adv-x="230" unicode=""/><glyph d="M169 0v417h117v67H169v26c0 74 19 140 94 140 25 0 43-5 56-11l12 68c-17 7-44 14-75 14-41 0-85-13-118-45-41-39-56-101-56-169v-23H14v-67h68V0z" horiz-adv-x="292" unicode="f"/><glyph d="M460 0v417h116v67H459v26c0 74 20 140 94 140 26 0 43-5 57-11l11 68c-17 7-43 14-75 14-40 0-84-13-117-45-41-39-57-101-57-169v-23H169v20c0 76 19 135 88 135 20 0 39-6 52-13l18 66c-15 8-41 17-69 17-54 0-94-17-122-46-38-38-54-97-54-165v-14H14v-67h68V0h87v417h203V0z" horiz-adv-x="583" unicode="ﬀ"/><glyph d="M705 690c-26 18-76 31-120 31-136 0-212-83-212-211v-26H169v17c0 43 8 87 32 113 15 16 35 25 63 25 23 0 46-8 61-17l24 65c-18 10-52 22-85 22-54 0-96-19-124-47-42-41-58-101-58-161v-17H14v-67h68V0h87v417h204V0h88v417h193V0h88v484H460v24c0 77 28 142 121 142 40 0 76-12 98-26z" horiz-adv-x="815" unicode="ﬃ"/><glyph d="M705 690c-26 18-76 31-120 31-136 0-212-83-212-211v-26H169v17c0 43 8 87 32 113 15 16 35 25 63 25 23 0 46-8 61-17l24 65c-18 10-52 22-85 22-54 0-96-19-124-47-42-41-58-101-58-161v-17H14v-67h68V0h87v417h204V0h88v417h193V77c0-116-9-155-33-182-21-23-56-34-96-37l9-69c47 0 111 16 150 55 43 44 58 105 58 199v441H460v24c0 77 28 142 121 142 40 0 76-12 98-26z" horiz-adv-x="809" unicode=""/><glyph d="M349 690c-15 8-48 19-80 19-55 0-100-18-131-49-42-41-56-103-56-165v-11H14v-67h68V0h87v417h204V0h88v417h113v67H460v24c0 78 31 145 122 145 35 0 57-5 73-13V0h87v689c-37 20-89 32-145 32-68 0-118-17-155-49-45-40-69-100-69-167v-21H169v18c0 45 8 86 32 111 15 17 36 26 65 26 21 0 42-5 60-15z" horiz-adv-x="815" unicode="ﬄ"/><glyph d="M169 0v417h194V0h87v484H169v24c0 77 27 142 120 142 43 0 81-13 102-28l25 67c-25 18-78 32-123 32-136 0-211-83-211-211v-26H14v-67h68V0z" horiz-adv-x="523" unicode="ﬁ"/><glyph d="M169 0v417h194V77c0-116-10-155-34-182-21-23-55-34-96-37l9-69c47 0 112 16 150 55 43 44 58 105 58 199v441H169v24c0 77 27 142 120 142 43 0 81-13 102-28l25 67c-25 18-78 32-123 32-136 0-211-83-211-211v-26H14v-67h68V0z" horiz-adv-x="522" unicode=""/><glyph d="M169 0v417h113v67H169v24c0 78 30 145 122 145 34 0 57-5 72-13V0h87v689c-36 20-89 32-145 32-67 0-117-17-155-49-45-40-68-100-68-167v-21H14v-67h68V0z" horiz-adv-x="523" unicode="ﬂ"/><glyph d="M169 0v417h194V0h87v484H169v24c0 77 27 142 120 142 43 0 81-13 102-28l25 67c-25 18-78 32-123 32-136 0-211-83-211-211v-26H14v-67h68V0z" horiz-adv-x="523" unicode=""/><glyph d="M433 650H122L80 338c24 3 53 7 90 7 130 0 186-60 187-144 0-87-71-141-154-141-59 0-112 20-139 36L42 29c31-20 91-40 162-40 141 0 242 95 242 222 0 82-42 138-93 167-40 24-90 35-140 35-24 0-38-2-53-4l25 167h248z" horiz-adv-x="513" unicode="5"/><glyph d="M268 388H66L40 196c15 2 34 5 57 5 81 0 113-33 113-79 0-48-43-76-88-76-38 0-72 12-89 22L19 18C39 6 80-6 123-6c93 0 156 57 156 134 0 49-25 83-56 100-26 16-59 22-92 22-13 0-23-1-31-2l13 85h155z" horiz-adv-x="308" unicode=""/><glyph d="M406 650H95L53 338c24 3 53 7 90 7 130 0 186-60 187-144 0-87-71-141-154-141-59 0-112 20-139 36L15 29c31-20 91-40 162-40 141 0 242 95 242 222 0 82-42 138-93 167-40 24-90 35-140 35-24 0-38-2-53-4l25 167h248z" horiz-adv-x="460" unicode=""/><glyph d="M268 241H66L40 49c15 2 34 5 57 5 81 0 113-33 113-79 0-48-43-76-88-76-38 0-72 12-89 22l-14-50c20-12 61-24 104-24 93 0 156 57 156 134 0 49-25 83-56 100-26 16-59 22-92 22-13 0-23-1-31-2l13 85h155z" horiz-adv-x="308" unicode="₅"/><glyph d="M268 654H66L40 462c15 2 34 5 57 5 81 0 113-33 113-79 0-48-43-76-88-76-38 0-72 12-89 22l-14-50c20-12 61-24 104-24 93 0 156 57 156 134 0 49-25 83-56 100-26 16-59 22-92 22-13 0-23-1-31-2l13 85h155z" horiz-adv-x="308" unicode=""/><glyph d="M36-97c25-10 70-18 114-18 149 0 252 81 252 204 0 43-16 84-46 113-53 51-138 63-221 62l30 149h217l11 72H106L54 198c110 8 189-4 228-43 19-19 31-44 31-73 0-84-79-129-164-129-38 0-79 6-102 13z" horiz-adv-x="441" unicode=""/><glyph d="M268 831H66L40 639c15 2 34 5 57 5 81 0 113-33 113-79 0-48-43-76-88-76-38 0-72 12-89 22l-14-50c20-12 61-24 104-24 93 0 156 57 156 134 0 49-25 83-56 100-26 16-59 22-92 22-13 0-23-1-31-2l13 85h155z" horiz-adv-x="308" unicode="⁵"/><glyph d="M78-97c25-10 70-18 114-18 149 0 252 81 252 204 0 43-16 84-46 113-53 51-138 63-221 62l30 149h217l11 72H148L96 198c110 8 189-4 228-43 19-19 31-44 31-73 0-84-79-129-164-129-38 0-79 6-102 13z" horiz-adv-x="530" unicode=""/><glyph d="M169 0v417h113v67H169v24c0 78 30 145 122 145 34 0 57-5 72-13V0h87v689c-36 20-89 32-145 32-67 0-117-17-155-49-45-40-68-100-68-167v-21H14v-67h68V0z" horiz-adv-x="523" unicode=""/><glyph d="M111 338h92l-23-197C168 39 145-16 83-16c-21 0-39 3-56 11L11-68c17-9 45-16 78-16 117 0 158 88 174 217l24 205h128v63H295l6 52c8 74 38 139 106 139 20 0 37-4 52-10l16 64c-14 8-38 14-68 15-135 0-179-115-191-214l-6-46h-99z" horiz-adv-x="513" unicode="ƒ"/><glyph d="M128 282h92l-20-174C188 5 164-49 103-50c-21 1-39 4-56 12l-16-63c16-9 44-16 77-16 118-1 159 88 174 217l22 182h128v58H311l7 59c8 74 38 139 106 139 21 0 37-5 52-10l17 64c-14 7-39 15-69 15-134 1-179-115-191-214l-6-53h-99z" horiz-adv-x="530" unicode=""/><glyph d="M400 0v177h91v69h-91v404h-95L15 235v-58h302V0M104 246v2l159 221c18 30 34 58 54 96h3q-3-51-3-102V246z" horiz-adv-x="513" unicode="4"/><glyph d="M272 0v103h56v49h-56v238h-79L16 143v-40h189V0m0 152H86l-1 2 87 118c12 18 22 36 34 59l2-1c-1-19-3-40-3-62z" horiz-adv-x="347" unicode=""/><glyph d="M396 0v177h91v69h-91v404h-95L11 235v-58h302V0M100 246v2l159 221c18 30 34 58 54 96h3q-3-51-3-102V246z" horiz-adv-x="503" unicode=""/><glyph d="M272-147v103h56V5h-56v238h-79L16-4v-40h189v-103m0 152H86l-1 2 87 118c12 18 22 36 34 59l2-1c-1-19-3-40-3-62z" horiz-adv-x="347" unicode="₄"/><glyph d="M272 266v103h56v49h-56v238h-79L16 409v-40h189V266m0 152H86l-1 2 87 118c12 18 22 36 34 59l2-1c-1-19-3-40-3-62z" horiz-adv-x="347" unicode=""/><glyph d="M483 50v67h-91v375h-95L18 107V50h292v-167h82V50m-82 67H107l-2 3 150 198c19 29 38 63 54 94h4c-3-32-3-62-3-95z" horiz-adv-x="502" unicode=""/><glyph d="M272 443v103h56v49h-56v238h-79L16 586v-40h189V443m0 152H86l-1 2 87 118c12 18 22 36 34 59l2-1c-1-19-3-40-3-62z" horiz-adv-x="347" unicode="⁴"/><glyph d="M497 50v67h-91v375h-95L32 107V50h292v-167h82V50m-82 67H121l-2 3 150 198c19 29 38 63 54 94h4c-3-32-3-62-3-95z" horiz-adv-x="530" unicode=""/><glyph d="m-101-11 380 672h-57L-157-11z" horiz-adv-x="121" unicode="⁄"/><glyph d="M486 351c0 59 2 98 4 133h-77l-4-73h-2c-21 40-67 84-151 84-111 0-218-93-218-257C38 104 124 2 244 2c75 0 127 36 154 81h2V29c0-122-66-169-156-169-60 0-110 18-142 38l-22-67c39-26 103-40 161-40 61 0 129 14 176 58 47 42 69 110 69 221m-87 136c0-15-2-32-7-47-19-56-68-90-122-90-95 0-143 79-143 174 0 112 60 183 144 183 64 0 107-42 123-93 4-12 5-25 5-40z" horiz-adv-x="559" unicode="g"/><glyph d="M474 351c0 59 2 98 4 133h-77l-4-73h-2c-21 40-67 84-151 84-111 0-218-93-218-257C26 104 112 2 232 2c75 0 127 36 154 81h2V29c0-122-66-169-156-169-60 0-110 18-142 38l-22-67c39-26 103-40 161-40 61 0 129 14 176 58 47 42 69 110 69 221m-87 136c0-15-2-32-7-47-19-56-68-90-122-90-95 0-143 79-143 174 0 112 60 183 144 183 64 0 107-42 123-93 4-12 5-25 5-40M205 567c2 28 10 45 26 45 12 0 23-6 43-18 21-11 40-20 61-20 47 0 70 34 69 101h-47c-2-34-12-43-28-43-12 0-26 8-42 17-23 13-40 22-62 22-43 0-70-39-68-104z" horiz-adv-x="559" unicode=""/><glyph d="M269-198c0 68 0 143-3 200 0 9 0 16 6 24 93 141 171 301 171 425 0 12-1 24-3 33h-83c0-9 1-19 1-34 0-119-70-262-114-343h-4C210 256 137 418 93 484H-6c49-75 135-238 171-398 23-96 21-192 18-284z" horiz-adv-x="464" unicode="γ"/><glyph d="M148 682c0-62 36-124 124-124 75 0 124 50 124 124h-52c-3-33-25-69-72-69-41 0-66 30-72 69m286-331c0 59 2 98 4 133h-77l-4-73h-2c-21 40-67 84-151 84-111 0-218-93-218-257C38 104 124 2 244 2c75 0 127 36 154 81h2V29c0-122-66-169-156-169-60 0-110 18-142 38l-22-67c39-26 103-40 161-40 61 0 129 14 176 58 47 42 69 110 69 221m-87 136c0-15-2-32-7-47-19-56-68-90-122-90-95 0-143 79-143 174 0 112 60 183 144 183 64 0 107-42 123-93 4-12 5-25 5-40z" horiz-adv-x="559" unicode="ğ"/><glyph d="m248 696-94-143h65l58 95h2l58-95h68l-96 143m177-345c0 59 2 98 4 133h-77l-4-73h-2c-21 40-67 84-151 84-111 0-218-93-218-257C38 104 124 2 244 2c75 0 127 36 154 81h2V29c0-122-66-169-156-169-60 0-110 18-142 38l-22-67c39-26 103-40 161-40 61 0 129 14 176 58 47 42 69 110 69 221m-87 136c0-15-2-32-7-47-19-56-68-90-122-90-95 0-143 79-143 174 0 112 60 183 144 183 64 0 107-42 123-93 4-12 5-25 5-40z" horiz-adv-x="559" unicode="ĝ"/><glyph d="M486 351c0 59 2 98 4 133h-77l-4-73h-2c-21 40-67 84-151 84-111 0-218-93-218-257C38 104 124 2 244 2c75 0 127 36 154 81h2V29c0-122-66-169-156-169-60 0-110 18-142 38l-22-67c39-26 103-40 161-40 61 0 129 14 176 58 47 42 69 110 69 221m-87 136c0-15-2-32-7-47-19-56-68-90-122-90-95 0-143 79-143 174 0 112 60 183 144 183 64 0 107-42 123-93 4-12 5-25 5-40m-61 416c-61-3-129-32-129-103 0-31 20-58 40-71l63 13c-18 15-35 36-35 59 0 40 37 59 78 65z" horiz-adv-x="559" unicode="ģ"/><glyph d="M279 573c29 0 49 24 49 51 0 29-21 52-49 52-29 0-51-23-51-52 0-27 21-51 50-51m208-222c0 59 2 98 4 133h-77l-4-73h-2c-21 40-67 84-151 84-111 0-218-93-218-257C38 104 124 2 244 2c75 0 127 36 154 81h2V29c0-122-66-169-156-169-60 0-110 18-142 38l-22-67c39-26 103-40 161-40 61 0 129 14 176 58 47 42 69 110 69 221m-87 136c0-15-2-32-7-47-19-56-68-90-122-90-95 0-143 79-143 174 0 112 60 183 144 183 64 0 107-42 123-93 4-12 5-25 5-40z" horiz-adv-x="559" unicode="ġ"/><glyph d="M161 0v456c0 142 43 196 120 196 62 0 104-40 104-109 0-17-4-31-9-43-57-28-89-72-89-123 0-56 36-93 78-133 36-33 54-61 54-103 0-46-34-84-98-84-30 0-58 7-84 20l-16-67c29-15 69-21 106-21 111 0 179 65 179 159 0 72-41 114-81 154-31 32-51 53-51 87s27 62 72 81c11 16 23 47 23 82 0 109-83 169-178 169-61 0-109-17-147-51-44-40-71-104-71-218V0z" horiz-adv-x="548" unicode="ß"/><glyph d="m22 693 122-143h62l-87 143z" horiz-adv-x="300" unicode="`"/><glyph d="m-2 827 127-116h72l-93 116z" horiz-adv-x="300" unicode=""/><glyph d="M530 294 66 532v-69l394-196v-2L66 69V0l464 238z" horiz-adv-x="596" unicode="&gt;"/><glyph d="M530 292v59L66 543v-66l382-155v-2L66 166V99M528 0v58H66V0z" horiz-adv-x="596" unicode="≥"/><glyph d="M232 436h-71L29 252 161 68h71L98 252m298 184h-71L193 252 325 68h71L262 252z" horiz-adv-x="419" unicode="«"/><glyph d="M232 511h-71L29 327l132-184h71L98 327m298 184h-71L193 327l132-184h71L262 327z" horiz-adv-x="419" unicode=""/><glyph d="M157 252 24 68h70l133 184L94 436H23m297-184L187 68h70l133 184-133 184h-71z" horiz-adv-x="419" unicode="»"/><glyph d="M157 327 24 143h70l133 184L94 511H23m297-184L187 143h70l133 184-133 184h-71z" horiz-adv-x="419" unicode=""/><glyph d="M232 436h-71L29 252 161 68h71L98 252z" horiz-adv-x="255" unicode="‹"/><glyph d="M232 511h-71L29 327l132-184h71L98 327z" horiz-adv-x="255" unicode=""/><glyph d="M157 252 23 68h71l133 184L93 436H23z" horiz-adv-x="255" unicode="›"/><glyph d="M157 327 23 143h71l133 184L93 511H23z" horiz-adv-x="255" unicode=""/><glyph d="M73 0h88v292c0 17 1 30 6 42 16 48 61 88 118 88 83 0 112-66 112-144V0h88v288c0 167-104 207-169 207-33 0-64-10-90-25-27-15-49-37-63-62h-2v302H73z" horiz-adv-x="555" unicode="h"/><glyph d="M485 0v288c0 167-104 207-169 207-33 0-64-10-90-25-27-15-49-37-63-62h-2v144h193v55H161v103H73V607H-4v-55h77V0h88v292c0 17 1 30 6 42 16 48 61 88 118 88 83 0 112-66 112-144V0z" horiz-adv-x="555" unicode="ħ"/><glyph d="M73 0h88v292c0 17 1 30 6 42 16 48 61 88 118 88 83 0 112-66 112-144V0h88v288c0 167-104 207-169 207-33 0-64-10-90-25-27-15-49-37-63-62h-2v302H73m14 133L-16 729h71l64 69h2l64-69h73L154 843z" horiz-adv-x="555" unicode="ĥ"/><glyph d="M123 693 44 556h55l110 137m58 0-79-137h55l110 137z" horiz-adv-x="300" unicode="˝"/><glyph d="M117 827 37 715h64l111 112m52 0-80-112h64l112 112z" horiz-adv-x="300" unicode=""/><glyph d="M30 303v-65h247v65z" horiz-adv-x="307" unicode="-"/><glyph d="M30 378v-65h247v65z" horiz-adv-x="307" unicode=""/><glyph d="M18 208v-48h155v48z" horiz-adv-x="191" unicode=""/><glyph d="M18 61V13h155v48z" horiz-adv-x="191" unicode=""/><glyph d="M18 474v-48h155v48z" horiz-adv-x="191" unicode=""/><glyph d="M18 651v-48h155v48z" horiz-adv-x="191" unicode=""/><glyph d="M161 0v484H73V0m44 675c-32 0-55-24-55-55 0-30 22-54 53-54 35 0 57 24 56 54 0 31-21 55-54 55" horiz-adv-x="234" unicode="i"/><glyph d="M155 693 67 550h63l122 143M161 0v484H73V0z" horiz-adv-x="234" unicode="í"/><glyph d="M-4 682c0-62 36-124 124-124 75 0 124 50 124 124h-52c-3-33-25-69-72-69-41 0-66 30-72 69M161 0v484H73V0z" horiz-adv-x="234" unicode="ĭ"/><glyph d="M86 693-8 550h65l58 95h2l58-95h68l-96 143M161 0v484H73V0z" horiz-adv-x="234" unicode="î"/><glyph d="M25 570c29 0 49 24 49 51 0 29-21 51-49 51s-51-23-51-51c0-27 21-51 50-51m186 0c29 0 49 24 49 51 0 29-21 51-49 51s-50-23-50-51c0-27 20-51 49-51M161 0v484H73V0z" horiz-adv-x="234" unicode="ï"/><glyph d="M-27 693 95 550h62L70 693M161 0v484H73V0z" horiz-adv-x="234" unicode="ì"/><glyph d="M161 0v484H73V0m44 675c-32 0-55-24-55-55 0-30 22-54 53-54 35 0 57 24 56 54 0 31-21 55-54 55m81-886c47 0 111 16 150 55 43 44 58 105 58 199v441h-88V77c0-116-9-155-33-182-21-23-56-34-96-37m174 817c-33 0-56-24-56-55 0-29 21-54 54-54 35 0 56 25 55 54 0 31-21 55-53 55" horiz-adv-x="477" unicode="ĳ"/><glyph d="M5 643v-57h225v57M161 0v484H73V0z" horiz-adv-x="234" unicode="ī"/><glyph d="M541 116c88 0 152 69 152 148 0 86-59 148-144 148-81 0-134-56-185-107-48 48-103 107-177 107-88 0-152-69-152-148 0-86 60-148 144-148 81 0 134 56 185 107 48-48 103-107 176-107m2 60c-58 0-99 52-138 88 38 39 84 88 141 88 49 0 85-37 85-88 0-47-38-88-87-88m-360 0c-49 0-85 37-85 88 0 47 38 88 88 88 58 0 99-52 138-88-38-39-84-88-140-88z" horiz-adv-x="728" unicode="∞"/><glyph d="M306 788c-10 4-26 7-45 7-34 0-65-11-89-37-36-39-52-95-52-196 0-147 12-324 12-476 0-96-14-133-31-154-12-15-28-21-44-21-14 0-27 3-35 6l-12-58c9-5 31-9 54-9 38 0 73 16 95 48 24 32 42 90 42 188 0 151-12 325-12 470 0 89 10 133 30 158 11 15 28 22 46 22 10 0 21-2 30-4z" horiz-adv-x="316" unicode="∫"/><glyph d="M116 570c35 0 57 26 57 56 0 31-22 56-56 56-33 0-56-25-56-56 0-30 22-56 54-56m46-86H73V0C55-27 26-74 26-123c0-56 37-86 92-86 26 0 60 7 81 23l-13 45c-12-5-26-9-46-9-29 0-51 18-51 52 0 36 27 77 42 98h30z" horiz-adv-x="234" unicode="į"/><glyph d="M161 484H73V108c0-96 39-119 90-119 15 0 30 2 40 5l5 64c-38-2-47 16-47 59z" horiz-adv-x="236" unicode="ι"/><glyph d="M28 557c29 0 49 23 49 50 0 29-21 51-48 51-29 0-50-23-50-51 0-27 20-50 48-50m185 0c29 0 49 23 49 50 0 29-21 51-49 51s-49-23-49-51c0-27 19-50 48-50m-50-73H73V109c0-97 39-120 90-120 15 0 30 2 40 5l5 64c-38-2-47 16-47 59z" horiz-adv-x="236" unicode="ϊ"/><glyph d="M161 484H73V108c0-96 39-119 90-119 15 0 30 2 40 5l5 64c-38-2-47 16-47 59m-54 579L85 540h47l50 156M5 561c27 0 45 21 45 46 0 26-19 46-44 46-26 0-47-20-47-46 0-25 19-46 45-46m243 0c27 0 45 21 45 46 0 26-19 46-45 46s-46-20-46-46c0-25 19-46 45-46z" horiz-adv-x="236" unicode="ΐ"/><glyph d="M133 687 80 544h59l83 143m-61-203H73V108c0-96 39-119 90-119 15 0 30 2 40 5l5 64c-38-2-47 16-47 59z" horiz-adv-x="236" unicode="ί"/><glyph d="M42 567c2 28 10 45 26 45 12 0 23-6 43-18 21-11 40-20 61-20 47 0 70 34 69 101h-47c-2-34-12-43-28-43-12 0-26 8-42 17-23 13-40 22-62 22-43 0-70-39-68-104M161 0v484H73V0z" horiz-adv-x="234" unicode="ĩ"/><glyph d="M-36-211c47 0 111 16 150 55 43 44 58 105 58 199v441H84V77c0-116-9-155-33-182-21-23-56-34-96-37m174 817c-33 0-56-24-56-55 0-29 21-54 54-54 35 0 56 25 55 54 0 31-21 55-53 55" horiz-adv-x="243" unicode="j"/><glyph d="M-36-211c47 0 111 16 150 55 43 44 58 105 58 199v441H84V77c0-116-9-155-33-182-21-23-56-34-96-37M91 686-3 543h65l58 95h2l58-95h68l-96 143z" horiz-adv-x="243" unicode="ĵ"/><glyph d="M160 710H73V0h87v182l45 50L372 0h107L266 285l187 199H347L205 317c-14-17-31-38-43-55h-2z" horiz-adv-x="469" unicode="k"/><glyph d="M250 262c85 80 162 155 230 218v4H377c-57-58-125-133-212-215h-4v133c0 40-6 71-14 82H62c8-18 11-66 11-105V0h88v215h8c46-1 91-48 140-112L385 0h102l-88 122c-49 64-101 126-149 137z" horiz-adv-x="493" unicode="κ"/><glyph d="M160 710H73V0h87v182l45 50L372 0h107L266 285l187 199H347L205 317c-14-17-31-38-43-55h-2m17-484c62 4 129 34 129 108 0 32-20 60-40 73l-65-14c18-14 34-37 34-60 0-40-36-60-75-66z" horiz-adv-x="469" unicode="ķ"/><glyph d="M160 484H73V0h87v182l45 50L372 0h107L266 285l187 199H347L205 317c-14-17-31-38-43-55h-2z" horiz-adv-x="469" unicode="ĸ"/><glyph d="M73 0h88v710H73z" horiz-adv-x="236" unicode="l"/><glyph d="M73 0h88v710H73m81 146L61 739h72l127 117z" horiz-adv-x="236" unicode="ĺ"/><glyph d="M364 0h93L272 492c-52 137-97 228-192 228-11 0-25-2-33-4l-9-68c6 1 12 1 17 1 59 0 96-67 127-152 5-12 6-20 6-26 0-5-2-12-6-23L7 0h92l99 280c11 33 24 70 31 102h5c10-39 21-72 32-105z" horiz-adv-x="472" unicode="λ"/><glyph d="M73 0h88v710H73m167-188c15 13 64 49 64 122 0 35-18 64-35 75l-63-14c17-15 31-40 31-65 0-41-20-69-36-89z" horiz-adv-x="244" unicode="ľ"/><glyph d="M73 0h88v710H73M52-222c62 4 129 34 129 108 0 32-20 60-40 73L76-55c18-14 34-37 34-60 0-40-36-60-75-66z" horiz-adv-x="236" unicode="ļ"/><glyph d="M73 0h88v710H73m180-369c27 0 46 24 46 50 0 29-20 50-46 50-27 0-48-22-48-50 0-26 20-50 47-50z" horiz-adv-x="272" unicode="ŀ"/><glyph d="M66 239 530 0v69L139 265v2l391 196v69L66 293z" horiz-adv-x="596" unicode="&lt;"/><glyph d="M530 99v67L148 320v2l382 155v66L66 351v-59M530 0v58H68V0z" horiz-adv-x="596" unicode="≤"/><glyph d="M40 399v-60h452V121h64v278z" horiz-adv-x="596" unicode="¬"/><glyph d="M477 325 295 680h-69L45 325 226-31h69m106 354L273 60c-3-7-7-16-10-23h-2c-2 7-7 16-10 23L120 326l128 264c4 6 8 15 10 23h2c3-8 7-17 11-23z" horiz-adv-x="522" unicode="◊"/><glyph d="M165 0v355l71 61v70l-71-61v285H77V358L9 299v-69l68 58V0z" horiz-adv-x="242" unicode="ł"/><glyph d="M73 0h86v292c0 15 2 30 7 43 14 44 54 88 109 88 67 0 101-56 101-133V0h86v299c0 16 3 32 7 44 15 43 54 80 104 80 71 0 105-56 105-149V0h86v285c0 168-95 210-159 210-46 0-78-12-107-34-20-15-39-36-54-63h-2c-21 57-71 97-137 97-80 0-125-43-152-89h-3l-4 78H69c3-40 4-81 4-131z" horiz-adv-x="834" unicode="m"/><glyph d="m386 693-94-143h65l58 95h2l58-95h68l-96 143M73 0h86v292c0 15 2 30 7 43 14 44 54 88 109 88 67 0 101-56 101-133V0h86v299c0 16 3 32 7 44 15 43 54 80 104 80 71 0 105-56 105-149V0h86v285c0 168-95 210-159 210-46 0-78-12-107-34-20-15-39-36-54-63h-2c-21 57-71 97-137 97-80 0-125-43-152-89h-3l-4 78H69c3-40 4-81 4-131z" horiz-adv-x="834" unicode=""/><glyph d="M38 643v-57h225v57z" horiz-adv-x="300" unicode="¯"/><glyph d="M31 788v-55h239v55z" horiz-adv-x="300" unicode=""/><glyph d="M40 297v-60h516v60z" horiz-adv-x="596" unicode="−"/><glyph d="M403 75c8-62 43-86 86-86 14 0 20 1 30 4l7 64c-35 2-46 23-46 76v351h-87V187c0-16-3-32-8-45-16-39-58-81-116-81-77 0-109 62-109 137v286H73V-20c0-77 4-148 14-178h79c-10 40-11 129-11 182v60C176 7 217-9 261-9c72 0 119 46 139 84z" horiz-adv-x="553" unicode="µ"/><glyph d="m40 482 214-219L40 44 84 0l214 219L512 0l44 44-215 219 215 219-44 44-214-219L84 526z" horiz-adv-x="596" unicode="×"/><glyph d="M73 0h88v291c0 15 2 30 6 41 15 49 60 90 118 90 83 0 112-65 112-143V0h88v289c0 166-104 206-171 206-80 0-136-45-160-91h-2l-5 80H69c3-40 4-81 4-131z" horiz-adv-x="555" unicode="n"/><glyph d="m246 693-94-143h65l58 95h2l58-95h68l-96 143M73 0h88v291c0 15 2 30 6 41 15 49 60 90 118 90 83 0 112-65 112-143V0h88v289c0 166-104 206-171 206-80 0-136-45-160-91h-2l-5 80H69c3-40 4-81 4-131z" horiz-adv-x="555" unicode=""/><glyph d="m318 693-88-143h63l122 143M73 0h88v291c0 15 2 30 6 41 15 49 60 90 118 90 83 0 112-65 112-143V0h88v289c0 166-104 206-171 206-80 0-136-45-160-91h-2l-5 80H69c3-40 4-81 4-131z" horiz-adv-x="555" unicode="ń"/><glyph d="M73 0h88v291c0 15 2 30 6 41 15 49 60 90 118 90 83 0 112-65 112-143V0h88v289c0 166-104 206-171 206-80 0-136-45-160-91h-2l-5 80H69c3-40 4-81 4-131M56 536c16 12 67 48 67 115 0 35-18 62-35 72l-64-17c17-14 31-36 31-59 0-38-20-63-37-82z" horiz-adv-x="555" unicode="ŉ"/><glyph d="m310 550 94 143h-66l-59-95h-2l-59 95h-68l96-143M73 0h88v291c0 15 2 30 6 41 15 49 60 90 118 90 83 0 112-65 112-143V0h88v289c0 166-104 206-171 206-80 0-136-45-160-91h-2l-5 80H69c3-40 4-81 4-131z" horiz-adv-x="555" unicode="ň"/><glyph d="M73 0h88v291c0 15 2 30 6 41 15 49 60 90 118 90 83 0 112-65 112-143V0h88v289c0 166-104 206-171 206-80 0-136-45-160-91h-2l-5 80H69c3-40 4-81 4-131m148-574c62 4 129 34 129 108 0 32-20 60-40 73l-65-14c18-14 34-37 34-60 0-40-36-60-75-66z" horiz-adv-x="555" unicode="ņ"/><glyph d="M96-10c21-1 49 0 81 5 70 8 139 38 189 87 64 62 112 162 112 305 0 166-82 274-215 274S41 553 41 430c0-111 75-199 192-199 65 0 117 26 153 70h3c-12-77-43-134-86-173-37-35-85-56-136-63-30-3-52-5-71-3m160 532c92 0 133-85 133-196 0-14-3-24-8-32-23-39-69-68-128-68-76 0-125 57-125 138 0 92 53 158 127 158z" horiz-adv-x="513" unicode="9"/><glyph d="M58-4c11-1 29-1 46 2 51 4 98 21 131 52 40 37 69 97 69 180 0 96-50 165-140 165-83 0-141-64-141-138 0-70 50-120 121-120 39 0 69 14 90 38h1c-7-40-25-71-51-92-23-19-53-30-84-34-16-1-31-2-42-1m103 297c53 0 75-47 75-104 0-8-1-15-4-20-13-20-38-36-71-36-44 0-71 33-71 75 0 48 30 85 70 85z" horiz-adv-x="327" unicode=""/><glyph d="M96-10c21-1 49 0 81 5 70 8 139 38 189 87 64 62 112 162 112 305 0 166-82 274-215 274S41 553 41 430c0-111 75-199 192-199 65 0 117 26 153 70h3c-12-77-43-134-86-173-37-35-85-56-136-63-30-3-52-5-71-3m160 532c92 0 133-85 133-196 0-14-3-24-8-32-23-39-69-68-128-68-76 0-125 57-125 138 0 92 53 158 127 158z" horiz-adv-x="517" unicode=""/><glyph d="M58-151c11-1 29-1 46 2 51 4 98 21 131 52 40 37 69 97 69 180 0 96-50 165-140 165-83 0-141-64-141-138C23 40 73-10 144-10c39 0 69 14 90 38h1c-7-40-25-71-51-92-23-19-53-30-84-34-16-1-31-2-42-1m103 297c53 0 75-47 75-104 0-8-1-15-4-20-13-20-38-36-71-36-44 0-71 33-71 75 0 48 30 85 70 85z" horiz-adv-x="327" unicode="₉"/><glyph d="M58 262c11-1 29-1 46 2 51 4 98 21 131 52 40 37 69 97 69 180 0 96-50 165-140 165-83 0-141-64-141-138 0-70 50-120 121-120 39 0 69 14 90 38h1c-7-40-25-71-51-92-23-19-53-30-84-34-16-1-31-2-42-1m103 297c53 0 75-47 75-104 0-8-1-15-4-20-13-20-38-36-71-36-44 0-71 33-71 75 0 48 30 85 70 85z" horiz-adv-x="327" unicode=""/><glyph d="M82-114c231 7 390 148 390 372 0 153-94 240-212 240-122 0-217-92-217-213 0-120 86-192 187-192 68 0 123 34 143 68l2-1C348 42 247-42 76-49m176 204c-65 0-121 44-121 136 0 94 64 139 125 139 70 0 129-59 129-150 0-24-6-46-15-60-19-35-67-65-117-65z" horiz-adv-x="520" unicode=""/><glyph d="M58 439c11-1 29-1 46 2 51 4 98 21 131 52 40 37 69 97 69 180 0 96-50 165-140 165-83 0-141-64-141-138 0-70 50-120 121-120 39 0 69 14 90 38h1c-7-40-25-71-51-92-23-19-53-30-84-34-16-1-31-2-42-1m103 297c53 0 75-47 75-104 0-8-1-15-4-20-13-20-38-36-71-36-44 0-71 33-71 75 0 48 30 85 70 85z" horiz-adv-x="327" unicode="⁹"/><glyph d="M89-114c231 7 390 148 390 372 0 153-94 240-212 240-122 0-217-92-217-213 0-120 86-192 187-192 68 0 123 34 143 68l2-1C355 42 254-42 83-49m176 204c-65 0-121 44-121 136 0 94 64 139 125 139 70 0 129-59 129-150 0-24-6-46-15-60-19-35-67-65-117-65z" horiz-adv-x="530" unicode=""/><glyph d="M556 140v60H285l88 138h183v60H411l79 122h-65l-76-122H40v-60h271l-89-138H40v-60h144L105 18h65l76 122z" horiz-adv-x="596" unicode="≠"/><glyph d="M203 567c2 28 10 45 26 45 12 0 23-6 43-18 21-11 40-20 61-20 47 0 70 34 69 101h-47c-2-34-12-43-28-43-12 0-26 8-42 17-23 13-40 22-62 22-43 0-70-39-68-104M73 0h88v291c0 15 2 30 6 41 15 49 60 90 118 90 83 0 112-65 112-143V0h88v289c0 166-104 206-171 206-80 0-136-45-160-91h-2l-5 80H69c3-40 4-81 4-131z" horiz-adv-x="555" unicode="ñ"/><glyph d="M4 484 181 0h83c88 147 181 311 181 448 0 13-2 26-3 36h-83c1-14 1-29 1-45 0-112-85-275-125-353h-3c-14 42-26 83-42 126L97 484z" horiz-adv-x="469" unicode="ν"/><glyph d="m188 255 19 145h104l-19-145M153 0l26 196h104L257 0h60l26 196h95v59h-86l18 145h91v59h-82l25 191h-59l-26-191H215l25 191h-58l-26-191H61v-59h86l-19-145H37v-59h82L93 0z" horiz-adv-x="497" unicode="#"/><glyph d="m205 226 19 145h103l-18-145M174-3l22 170h104L277-3h60l23 170h95v59h-86l18 145h91v59h-82l21 165h-59l-22-165H232l22 165h-59l-22-165H78v-59h86l-19-145H54v-59h82L114-3z" horiz-adv-x="530" unicode=""/><glyph d="M278 495c-134 0-240-95-240-257C38 85 139-11 270-11c117 0 241 78 241 257 0 148-94 249-233 249m-2-66c104 0 145-104 145-186 0-109-63-188-147-188-86 0-147 80-147 186 0 92 45 188 149 188" horiz-adv-x="549" unicode="o"/><glyph d="m309 693-88-143h63l122 143M278 495c-134 0-240-95-240-257C38 85 139-11 270-11c117 0 241 78 241 257 0 148-94 249-233 249m-2-66c104 0 145-104 145-186 0-109-63-188-147-188-86 0-147 80-147 186 0 92 45 188 149 188" horiz-adv-x="549" unicode="ó"/><glyph d="M150 682c0-62 36-124 124-124 75 0 124 50 124 124h-52c-3-33-25-69-72-69-41 0-66 30-72 69m76-187c-134 0-240-95-240-257C38 85 139-11 270-11c117 0 241 78 241 257 0 148-94 249-233 249m-2-66c104 0 145-104 145-186 0-109-63-188-147-188-86 0-147 80-147 186 0 92 45 188 149 188" horiz-adv-x="549" unicode="ŏ"/><glyph d="m243 693-94-143h65l58 95h2l58-95h68l-96 143m-26-198c-134 0-240-95-240-257C38 85 139-11 270-11c117 0 241 78 241 257 0 148-94 249-233 249m-2-66c104 0 145-104 145-186 0-109-63-188-147-188-86 0-147 80-147 186 0 92 45 188 149 188" horiz-adv-x="549" unicode="ô"/><glyph d="M182 570c29 0 49 24 49 51 0 29-21 51-49 51s-51-23-51-51c0-27 21-51 50-51m186 0c29 0 49 24 49 51 0 29-21 51-49 51s-50-23-50-51c0-27 20-51 49-51m-88-75c-134 0-240-95-240-257C38 85 139-11 270-11c117 0 241 78 241 257 0 148-94 249-233 249m-2-66c104 0 145-104 145-186 0-109-63-188-147-188-86 0-147 80-147 186 0 92 45 188 149 188" horiz-adv-x="549" unicode="ö"/><glyph d="M824 227c2 9 3 24 3 41 0 86-41 227-196 227-75 0-140-39-176-116h-2c-30 74-101 116-183 116-130 0-232-99-232-256C38 86 136-11 264-11c75 0 151 36 187 114h3C492 24 561-11 645-11c53 0 118 11 157 33l-16 63c-33-14-70-27-130-27-92 0-160 59-161 169M271 429c100 0 142-95 142-187 0-111-57-187-142-187-84 0-144 81-144 186 0 83 38 188 143 188m225-139c5 61 42 141 129 141 96 0 119-87 118-141z" horiz-adv-x="863" unicode="œ"/><glyph d="M123 4C99-22 63-70 63-119c0-56 38-86 94-86 25 0 60 7 80 23l-14 45c-12-5-28-9-46-9-29 0-50 19-50 50 0 38 38 81 53 100z" horiz-adv-x="300" unicode="˛"/><glyph d="M123 4C99-22 63-70 63-119c0-56 38-86 94-86 25 0 60 7 80 23l-14 45c-12-5-28-9-46-9-29 0-50 19-50 50 0 38 38 81 53 100z" horiz-adv-x="300" unicode=""/><glyph d="m145 693 122-143h62l-87 143m36-198c-134 0-240-95-240-257C38 85 139-11 270-11c117 0 241 78 241 257 0 148-94 249-233 249m-2-66c104 0 145-104 145-186 0-109-63-188-147-188-86 0-147 80-147 186 0 92 45 188 149 188" horiz-adv-x="549" unicode="ò"/><glyph d="M276 429c104 0 145-104 145-186 0-109-63-188-147-188-86 0-147 80-147 186 0 92 45 188 149 188m194 125c9-17 16-37 16-59 0-26-14-40-40-40-31 0-61 19-85 26-27 9-53 14-83 14-134 0-240-95-240-257C38 85 139-11 270-11c117 0 241 78 241 257 0 65-18 120-50 160 61-3 93 33 93 87 0 28-7 52-17 73z" horiz-adv-x="553" unicode="ơ"/><glyph d="m238 693-79-137h55l110 137m58 0-79-137h55l110 137M278 495c-134 0-240-95-240-257C38 85 139-11 270-11c117 0 241 78 241 257 0 148-94 249-233 249m-2-66c104 0 145-104 145-186 0-109-63-188-147-188-86 0-147 80-147 186 0 92 45 188 149 188" horiz-adv-x="549" unicode="ő"/><glyph d="M162 643v-57h225v57M278 495c-134 0-240-95-240-257C38 85 139-11 270-11c117 0 241 78 241 257 0 148-94 249-233 249m-2-66c104 0 145-104 145-186 0-109-63-188-147-188-86 0-147 80-147 186 0 92 45 188 149 188" horiz-adv-x="549" unicode="ō"/><glyph d="M388 363h-83l2-191c0-61-35-110-80-110-46 0-103 52-103 187 0 103 35 190 80 239v2h-81c-43-42-85-134-85-243C38 63 131-11 215-11c59 0 105 33 128 86h4c20-53 67-86 126-86 92 0 183 86 183 266 0 111-40 199-83 235h-83v-2c46-45 80-136 80-231 0-130-51-195-101-195-48 0-83 48-83 111z" horiz-adv-x="694" unicode="ω"/><glyph d="m360 686-53-143h59l83 143m-61-323h-83l2-191c0-61-35-110-80-110-46 0-103 52-103 187 0 103 35 190 80 239v2h-81c-43-42-85-134-85-243C38 63 131-11 215-11c59 0 105 33 128 86h4c20-53 67-86 127-86 91 0 182 86 182 266 0 111-40 199-83 235h-83v-2c47-45 80-136 80-231 0-130-51-195-101-195-48 0-83 48-83 111z" horiz-adv-x="694" unicode="ώ"/><glyph d="M271-11c116 0 240 78 240 257 0 148-94 249-233 249-134 0-240-95-240-257C38 85 139-11 270-11m3 66c-85 0-146 80-146 186 0 92 45 188 149 188s145-104 145-186c0-109-63-188-147-188z" horiz-adv-x="549" unicode="ο"/><glyph d="m289 686-53-143h58l84 143M271-11c116 0 240 78 240 257 0 148-94 249-233 249-134 0-240-95-240-257C38 85 139-11 270-11m3 66c-85 0-146 80-146 186 0 92 45 188 149 188s145-104 145-186c0-109-63-188-147-188z" horiz-adv-x="549" unicode="ό"/><glyph d="M236 0h85v650h-75l-142-76 17-67 113 61h2z" horiz-adv-x="513" unicode="1"/><glyph d="M177 0v390h-61l-94-44 11-52 72 35h2V0z" horiz-adv-x="244" unicode=""/><glyph d="M151 0h85v650h-75L19 574l17-67 113 61h2z" horiz-adv-x="326" unicode=""/><glyph d="M177-147v390h-61l-94-44 11-52 72 35h2v-329z" horiz-adv-x="244" unicode="₁"/><glyph d="M177 266v390h-61l-94-44 11-52 72 35h2V266z" horiz-adv-x="244" unicode=""/><glyph d="M263 0v485h-73L26 411l16-65 135 62h2V0z" horiz-adv-x="362" unicode=""/><glyph d="M177 443v390h-61l-94-44 11-52 72 35h2V443z" horiz-adv-x="244" unicode="¹"/><glyph d="M366 0v485h-73L78 393l15-65 186 82h2V0z" horiz-adv-x="530" unicode=""/><glyph d="M184 266v390h-62l-93-44 11-52 72 35h2V266m61-277 379 672h-56L119-11M440 0h270v55H539v2l31 28c75 68 133 122 133 197 0 54-38 113-133 113-50 0-95-19-122-42l21-45c19 13 49 31 84 31 52 0 76-32 76-70 0-51-43-98-126-173l-63-59z" horiz-adv-x="759" unicode="½"/><glyph d="M198 266v390h-61l-94-44 11-52 72 35h2V266m67-277 379 672h-56L138-11M664 0v103h60v49h-60v243h-74L397 142v-39h200V0m0 152H469v1l96 125c11 16 20 34 33 55h2c-1-19-3-40-3-63z" horiz-adv-x="759" unicode="¼"/><glyph d="M177 443v390h-61l-94-44 11-52 72 35h2V443z" horiz-adv-x="244" unicode=""/><glyph d="M305 266c-4 24-6 51-6 78v107c0 72-27 140-127 140-43 0-85-12-114-33l16-43c23 18 54 27 86 27 64 0 74-46 74-62v-10c-128 3-201-42-201-114 0-52 37-95 103-95 47 0 82 23 101 47h2l6-42m-10 106c0-7-4-17-10-27-13-19-38-36-68-36-31 0-58 18-58 51 0 57 73 68 136 67z" horiz-adv-x="346" unicode="ª"/><glyph d="M179 591c-86 0-161-64-161-168 0-98 70-162 159-162 77 0 159 52 160 167 0 94-61 163-157 163m-3-50c66 0 93-65 93-115 0-69-39-115-92-115-50 0-93 48-93 114 0 53 28 116 91 116z" horiz-adv-x="355" unicode="º"/><glyph d="M276 495c-132 0-238-95-238-256 0-79 28-143 75-187L71-8l37-30 43 61c35-23 79-34 124-34 113 0 236 79 236 257 0 75-26 140-73 185l42 62-39 27-42-59c-36 22-79 34-122 34M161 119l-2 1c-25 35-36 79-36 121 0 88 43 188 151 188 35 0 63-11 85-29m30-39h2c26-38 34-85 34-118 0-109-61-188-153-188-30 0-58 8-81 28z" horiz-adv-x="549" unicode="ø"/><glyph d="m315 693-88-143h63l122 143M276 495c-132 0-238-95-238-256 0-79 28-143 75-187L71-8l37-30 43 61c35-23 79-34 124-34 113 0 236 79 236 257 0 75-26 140-73 185l42 62-39 27-42-59c-36 22-79 34-122 34M161 119l-2 1c-25 35-36 79-36 121 0 88 43 188 151 188 35 0 63-11 85-29m30-39h2c26-38 34-85 34-118 0-109-61-188-153-188-30 0-58 8-81 28z" horiz-adv-x="549" unicode="ǿ"/><glyph d="M199 567c2 28 10 45 26 45 12 0 23-6 43-18 21-11 40-20 61-20 47 0 70 34 69 101h-47c-2-34-12-43-28-43-12 0-26 8-42 17-23 13-40 22-62 22-43 0-70-39-68-104m127-72c-134 0-240-95-240-257C38 85 139-11 270-11c117 0 241 78 241 257 0 148-94 249-233 249m-2-66c104 0 145-104 145-186 0-109-63-188-147-188-86 0-147 80-147 186 0 92 45 188 149 188" horiz-adv-x="549" unicode="õ"/><glyph d="M73-198h87V65h2c29-48 85-76 149-76 114 0 220 86 220 260 0 147-88 246-205 246-79 0-136-35-172-94h-2l-4 83H69c2-46 4-96 4-158m87-46c0 12 3 25 6 36 17 66 73 109 133 109 93 0 144-83 144-180 0-111-54-187-147-187-63 0-116 42-132 103-2 11-4 23-4 36z" horiz-adv-x="569" unicode="p"/><glyph d="M293-49v664h71V-49h62v716q-37.5 9-117 9C89 676 32 558 34 454c2-128 110-190 189-190h7V-49z" horiz-adv-x="512" unicode="¶"/><glyph d="M195 694C132 610 65 482 64 285c0-195 68-323 131-406h69C193-21 138 107 138 285c0 181 53 311 126 409z" horiz-adv-x="284" unicode="("/><glyph d="M195 733C132 649 65 521 64 324 64 129 132 1 195-82h69C193 18 138 146 138 324c0 181 53 311 126 409z" horiz-adv-x="284" unicode=""/><glyph d="M117 425c-36-48-77-126-77-243C40 67 81-10 117-58h51C129 0 96 76 96 182c0 108 32 186 72 243z" horiz-adv-x="180" unicode=""/><glyph d="M117 278C81 230 40 152 40 35c0-115 41-192 77-240h51C129-147 96-71 96 35c0 108 32 186 72 243z" horiz-adv-x="180" unicode="₍"/><glyph d="M117 691c-36-48-77-126-77-243 0-115 41-192 77-240h51c-39 58-72 134-72 240 0 108 32 186 72 243z" horiz-adv-x="180" unicode=""/><glyph d="M117 868c-36-48-77-126-77-243 0-115 41-192 77-240h51c-39 58-72 134-72 240 0 108 32 186 72 243z" horiz-adv-x="180" unicode="⁽"/><glyph d="M88-121c64 85 131 212 131 408 0 197-67 325-131 407H20c72-99 126-227 126-406 0-180-55-310-126-409z" horiz-adv-x="284" unicode=")"/><glyph d="M88-82c64 85 131 212 131 408 0 197-67 325-131 407H20c72-99 126-227 126-406C146 147 91 17 20-82z" horiz-adv-x="284" unicode=""/><glyph d="M64-58c36 49 77 126 77 242s-41 193-77 241H13c39-58 72-135 72-241C85 77 52 0 13-58z" horiz-adv-x="180" unicode=""/><glyph d="M64-205c36 49 77 126 77 242s-41 193-77 241H13c39-58 72-135 72-241 0-107-33-184-72-242z" horiz-adv-x="180" unicode="₎"/><glyph d="M64 208c36 49 77 126 77 242s-41 193-77 241H13c39-58 72-135 72-241 0-107-33-184-72-242z" horiz-adv-x="180" unicode=""/><glyph d="M64 385c36 49 77 126 77 242s-41 193-77 241H13c39-58 72-135 72-241 0-107-33-184-72-242z" horiz-adv-x="180" unicode="⁾"/><glyph d="M86 614c27 19 72 40 137 40 94 0 187-89 187-265 0-11 0-23-1-33h-1c-21 39-80 87-163 87-123 0-219-108-219-244C26 93 90-11 225-11c141 0 269 129 269 383 0 230-125 354-263 354-85 0-140-29-173-53M232 61c-70 0-118 52-118 140 0 98 65 172 145 172 69 0 122-47 141-96-14-114-78-216-167-216z" horiz-adv-x="375" unicode="∂"/><glyph d="M187 661c-86 0-157-73-157-203 1-130 71-196 152-196 84 0 156 68 156 205 0 124-60 194-150 194m-4-53c61 0 84-66 84-145 0-86-26-148-84-148-55 0-86 64-84 146 0 82 29 147 83 147m48-620 383 674h-56L176-12m435 404c-86 0-157-73-157-204C455 58 525-7 606-7c83 0 155 68 155 205 0 124-59 194-149 194m-4-53c61 0 84-66 84-145 0-86-26-148-84-148-54 0-86 63-85 146 0 82 30 147 84 147z" horiz-adv-x="792" unicode="%"/><glyph d="M184 603c-86 0-157-73-157-203 1-131 71-196 152-196 84 0 156 68 156 205 0 124-60 194-150 194m-3-53c61 0 83-66 83-145 0-86-25-148-84-148-54 0-85 64-84 146 0 82 30 147 84 147m80-562 351 620h-55L205-12m435 404c-86 0-158-73-157-204C483 58 554-7 635-7c83 0 155 68 155 205 0 124-59 194-149 194m-4-53c61 0 84-66 84-145 0-86-26-148-84-148-54 0-86 63-85 146 1 82 30 147 84 147z" horiz-adv-x="818" unicode=""/><glyph d="M111-11c37 0 60 27 60 63 0 37-24 63-59 63S52 89 52 52c0-36 24-63 58-63z" horiz-adv-x="207" unicode="."/><glyph d="M65-6c27 0 44 20 44 45 0 27-17 45-43 45S21 66 21 39C21 14 39-6 64-6z" horiz-adv-x="131" unicode=""/><glyph d="M65-153c27 0 44 20 44 45 0 27-17 45-43 45s-45-18-45-45c0-25 18-45 43-45z" horiz-adv-x="131" unicode=""/><glyph d="M65 260c27 0 44 20 44 45 0 27-17 45-43 45s-45-18-45-45c0-25 18-45 43-45z" horiz-adv-x="131" unicode=""/><glyph d="M65 437c27 0 44 20 44 45 0 27-17 45-43 45s-45-18-45-45c0-25 18-45 43-45z" horiz-adv-x="131" unicode=""/><glyph d="M103 200c36 0 60 27 60 63-1 37-24 63-59 63s-60-27-60-63c-1-36 24-63 58-63z" horiz-adv-x="207" unicode="·"/><glyph d="M103 275c36 0 60 27 60 63-1 37-24 63-59 63s-60-27-60-63c-1-36 24-63 58-63z" horiz-adv-x="207" unicode=""/><glyph d="M187 661c-86 0-157-73-157-203 1-130 71-196 152-196 84 0 156 68 156 205 0 124-60 194-150 194m-4-53c61 0 84-66 84-145 0-86-26-148-84-148-55 0-86 64-84 146 0 82 29 147 83 147m48-620 383 674h-56L175-12m436 404c-86 0-157-73-157-204C455 58 525-7 606-7c83 0 155 68 155 205 0 124-59 194-149 194m-4-53c61 0 84-66 84-145 0-86-26-148-84-148-55 0-86 63-85 146 0 82 30 147 84 147m368 53c-86 0-157-73-157-204C819 58 889-7 970-7c84 0 156 68 156 205 0 124-60 194-150 194m-3-53c61 0 83-66 83-145 0-86-25-148-84-148-55 0-86 63-84 146 0 82 30 147 84 147z" horiz-adv-x="1156" unicode="‰"/><glyph d="M204 498C138 470 38 385 38 245 38 74 162-1 282-10v-188h81v188C485 2 603 88 603 254c0 148-102 238-197 239-66 1-124-42-124-145V54c-105 17-157 96-157 193 0 104 62 170 113 202m125-88c0 46 17 68 42 68 56 0 114-78 114-176 0-113-61-186-156-199z" horiz-adv-x="642" unicode="φ"/><glyph d="m520 415 10 69H152c-77 0-117-11-139-26l12-52c25 7 60 9 99 9C120 287 92 95 56 0h84c35 80 64 288 68 415h159V135c0-77 7-120 15-135h85c-7 25-14 65-14 144v271z" horiz-adv-x="555" unicode="π"/><glyph d="M266 532V297H40v-60h226V0h64v237h226v60H330v235z" horiz-adv-x="596" unicode="+"/><glyph d="M266 572V377H40v-60h226V117h64v200h226v60H330v195M40 60V0h516v60z" horiz-adv-x="596" unicode="±"/><glyph d="M605 577v73H9v-73h93V-90h83v667h244V-90h83v667z" horiz-adv-x="615" unicode="∏"/><glyph d="M295-198h81v187c172 9 233 160 233 304 0 90-19 159-39 191h-81c13-21 36-98 36-198 0-139-62-229-149-233v558h-80V53c-76 5-144 53-144 195v145c0 50-4 80-12 91H59c7-25 8-68 8-113V240C67 53 172-3 295-11z" horiz-adv-x="655" unicode="ψ"/><glyph d="M403-198h88v549c0 50 1 92 3 133h-83l-3-73h-2c-24 47-74 84-149 84-102 0-219-80-219-261C38 87 130-11 243-11c78 0 132 38 158 86h2m0 122c0-13-3-30-7-42-20-61-69-96-126-96-97 0-143 84-143 180 0 109 55 186 146 186 66 0 113-46 126-100 3-11 4-25 4-37z" horiz-adv-x="563" unicode="q"/><glyph d="m219 192-1 25c-3 51 13 96 57 148 48 56 86 106 86 174 0 76-52 147-167 147-53 0-109-16-143-40l24-63c25 19 65 31 101 31 63-1 95-35 95-86 0-45-25-84-70-138-50-59-68-119-62-172l2-26m37-203c37 0 60 27 60 62 0 37-24 63-59 63s-60-26-60-63c0-35 24-62 58-62z" horiz-adv-x="406" unicode="?"/><glyph d="M237 488c-35 0-59-26-59-63 0-35 23-62 59-62s59 27 59 62c0 37-23 63-58 63m-41-202 1-26c3-51-13-95-56-148C93 56 55 6 55-61c0-77 53-148 167-148 53 0 110 17 144 40l-24 64c-26-20-66-32-101-32-64 1-95 35-95 87 0 44 24 83 69 137 50 60 69 119 63 173l-3 26z" horiz-adv-x="406" unicode="¿"/><glyph d="M237 683c-35 0-59-26-59-63 0-35 23-62 59-62s59 27 59 62c0 37-23 63-58 63m-41-202 1-26c3-51-13-95-56-148-49-56-87-106-87-173 0-77 53-148 167-148 53 0 110 17 144 40l-24 64c-26-20-66-32-101-32-64 1-95 35-95 87 0 44 24 83 69 137 50 60 69 119 63 173l-3 26z" horiz-adv-x="406" unicode=""/><glyph d="m51 692 16-240h54l17 240m62 0 17-240h53l17 240z" horiz-adv-x="337" unicode="&quot;"/><glyph d="M76-111c27 46 71 153 93 237l-90-10C68 45 42-59 20-118m204 7c28 46 71 153 94 237l-91-10c-11-71-37-175-59-234z" horiz-adv-x="356" unicode="„"/><glyph d="M125 458c11 72 37 176 59 234l-56-6c-28-46-71-154-94-238m239 10c11 72 37 176 59 234l-56-6c-27-46-71-154-93-238z" horiz-adv-x="354" unicode="“"/><glyph d="M93 682c-11-71-38-175-59-233l56 6c27 46 70 154 93 237m58-10c-11-71-37-175-59-233l56 6c27 46 70 154 93 237z" horiz-adv-x="354" unicode="”"/><glyph d="M125 458c11 72 38 176 59 234l-56-6c-27-46-70-154-93-238z" horiz-adv-x="207" unicode="‘"/><glyph d="M93 682c-11-71-37-175-59-233l56 6c28 46 71 154 94 237z" horiz-adv-x="207" unicode="’"/><glyph d="M76-111c28 46 71 153 94 237l-91-10C69 45 42-59 21-118z" horiz-adv-x="207" unicode="‚"/><glyph d="m51 692 16-240h54l17 240z" horiz-adv-x="188" unicode="'"/><glyph d="M73 0h87v258c0 15 2 29 4 41 12 66 56 113 118 113 12 0 21-1 30-3v83c-8 2-15 3-25 3-59 0-112-41-134-106h-4l-3 95H69c3-45 4-94 4-151z" horiz-adv-x="327" unicode="r"/><glyph d="m216 693-88-143h63l122 143M73 0h87v258c0 15 2 29 4 41 12 66 56 113 118 113 12 0 21-1 30-3v83c-8 2-15 3-25 3-59 0-112-41-134-106h-4l-3 95H69c3-45 4-94 4-151z" horiz-adv-x="327" unicode="ŕ"/><glyph d="M579 827h-66L327 61c-5-22-10-48-13-65h-2c-4 19-11 43-19 64L170 406 32 348l19-47 75 32L285-95h64z" horiz-adv-x="562" unicode="√"/><glyph d="m214 550 94 143h-66l-59-95h-2l-59 95H54l96-143M73 0h87v258c0 15 2 29 4 41 12 66 56 113 118 113 12 0 21-1 30-3v83c-8 2-15 3-25 3-59 0-112-41-134-106h-4l-3 95H69c3-45 4-94 4-151z" horiz-adv-x="327" unicode="ř"/><glyph d="M73 0h87v258c0 15 2 29 4 41 12 66 56 113 118 113 12 0 21-1 30-3v83c-8 2-15 3-25 3-59 0-112-41-134-106h-4l-3 95H69c3-45 4-94 4-151M60-222c62 4 129 34 129 108 0 32-20 60-40 73L84-55c18-14 34-37 34-60 0-40-36-60-75-66z" horiz-adv-x="327" unicode="ŗ"/><glyph d="M184 499h18c21 0 31-8 34-26 5-19 8-33 13-39h41c-4 5-7 15-12 40-5 22-14 35-30 40v2c20 6 34 20 34 39 0 15-7 28-16 35-12 8-26 13-57 13-27 0-48-3-63-6V434h38m1 139c4 1 11 2 21 2 24 0 35-10 35-25 0-17-17-24-38-24h-18m25 157c-94 0-169-73-169-164 0-93 75-165 169-165 95 0 168 72 168 165 0 91-73 164-167 164m-1-33c73 0 126-59 126-131 0-73-53-132-125-131-74 0-128 58-128 131 0 72 54 131 126 131z" horiz-adv-x="419" unicode="®"/><glyph d="M158 60c28-45 83-71 146-71 114 0 221 89 221 260 0 145-86 246-221 246-73 0-129-32-166-72-38-40-70-96-70-221V-22c0-75 2-146 11-176h84c-7 40-8 124-8 180v78m0 171c0 134 73 191 142 191 90 0 140-80 140-175 0-108-54-189-147-189-62 0-115 42-131 97-3 11-4 23-4 35z" horiz-adv-x="563" unicode="ρ"/><glyph d="M142 537c57 0 100 39 100 92s-39 94-99 94c-63 0-102-42-102-95 0-51 41-91 101-91m-1 37c-29 0-49 28-49 54 0 31 18 57 49 57 32 0 52-25 52-55s-20-56-52-56" horiz-adv-x="300" unicode="˚"/><glyph d="M202 877c-62 0-101-41-101-91 0-49 40-88 101-88 58 0 99 38 99 88 0 51-38 91-98 91m-3-37c30 0 49-24 49-53s-19-52-49-52c-28 0-47 25-47 51 0 29 17 54 46 54z" horiz-adv-x="400" unicode=""/><glyph d="M39 23c34-20 83-34 136-34 115 0 181 61 181 146 0 72-43 114-127 146-63 24-92 42-92 82 0 36 29 66 81 66 45 0 80-16 99-28l22 64c-27 16-70 30-119 30-104 0-167-64-167-142 0-58 41-106 128-137 65-24 90-47 90-89 0-40-30-72-94-72-44 0-90 18-116 35z" horiz-adv-x="396" unicode="s"/><glyph d="m244 693-88-143h63l122 143M39 23c34-20 83-34 136-34 115 0 181 61 181 146 0 72-43 114-127 146-63 24-92 42-92 82 0 36 29 66 81 66 45 0 80-16 99-28l22 64c-27 16-70 30-119 30-104 0-167-64-167-142 0-58 41-106 128-137 65-24 90-47 90-89 0-40-30-72-94-72-44 0-90 18-116 35z" horiz-adv-x="396" unicode="ś"/><glyph d="m235 550 94 143h-66l-59-95h-2l-59 95H75l96-143M39 23c34-20 83-34 136-34 115 0 181 61 181 146 0 72-43 114-127 146-63 24-92 42-92 82 0 36 29 66 81 66 45 0 80-16 99-28l22 64c-27 16-70 30-119 30-104 0-167-64-167-142 0-58 41-106 128-137 65-24 90-47 90-89 0-40-30-72-94-72-44 0-90 18-116 35z" horiz-adv-x="396" unicode="š"/><glyph d="M39 23c39-22 89-33 128-33h4l-40-71c47-4 77-16 78-42 0-24-21-32-43-32-18 0-38 5-54 15l-15-43c17-10 44-17 68-17 56 0 104 22 104 81 0 38-33 64-70 69l28 44c83 16 129 70 129 141 0 72-43 114-127 146-63 24-92 42-92 82 0 36 29 66 81 66 45 0 80-16 99-28l22 64c-27 16-70 30-119 30-104 0-167-64-167-142 0-58 41-106 128-137 65-24 90-47 90-89 0-40-30-72-94-72-44 0-90 18-116 35z" horiz-adv-x="396" unicode="ş"/><glyph d="M39 23c39-22 89-33 128-33h4l-40-71c47-4 77-16 78-42 0-24-21-32-43-32-18 0-38 5-54 15l-15-43c17-10 44-17 68-17 56 0 104 22 104 81 0 38-33 64-70 69l28 44c83 16 129 70 129 141 0 72-43 114-127 146-63 24-92 42-92 82 0 36 29 66 81 66 45 0 80-16 99-28l22 64c-27 16-70 30-119 30-104 0-167-64-167-142 0-58 41-106 128-137 65-24 90-47 90-89 0-40-30-72-94-72-44 0-90 18-116 35z" horiz-adv-x="268" unicode=""/><glyph d="M169 693 75 550h65l58 95h2l58-95h68l-96 143M39 23c34-20 83-34 136-34 115 0 181 61 181 146 0 72-43 114-127 146-63 24-92 42-92 82 0 36 29 66 81 66 45 0 80-16 99-28l22 64c-27 16-70 30-119 30-104 0-167-64-167-142 0-58 41-106 128-137 65-24 90-47 90-89 0-40-30-72-94-72-44 0-90 18-116 35z" horiz-adv-x="396" unicode="ŝ"/><glyph d="M39 23c34-20 83-34 136-34 115 0 181 61 181 146 0 72-43 114-127 146-63 24-92 42-92 82 0 36 29 66 81 66 45 0 80-16 99-28l22 64c-27 16-70 30-119 30-104 0-167-64-167-142 0-58 41-106 128-137 65-24 90-47 90-89 0-40-30-72-94-72-44 0-90 18-116 35m75-312c62 4 129 34 129 108 0 32-20 60-40 73l-65-14c18-14 34-37 34-60 0-40-36-60-75-66z" horiz-adv-x="396" unicode="ș"/><glyph d="M130 351c0 30 14 55 46 78 32-20 83-36 123-51 65-23 89-55 89-93 0-31-13-59-38-77-23 15-63 30-114 48-79 29-106 59-106 94m288 300c-34 19-82 33-138 33-103 0-185-54-185-142 1-34 17-68 37-84-53-34-73-79-73-117 0-86 71-123 174-158 93-32 122-57 122-104 0-53-48-82-112-82-59 0-108 24-132 41L87-21c38-27 96-41 157-41 93 0 190 45 190 150 0 41-21 74-38 88 40 31 65 69 65 121 0 90-71 128-163 158-75 25-125 44-125 96 0 45 45 74 104 74 54 0 94-16 120-32z" horiz-adv-x="519" unicode="§"/><glyph d="M78-117c28 47 72 158 96 243l-97-10C66 43 39-64 17-123m102 465c36 0 59 27 59 62 0 37-23 64-59 64-34 0-59-27-59-64 0-35 24-62 58-62z" horiz-adv-x="207" unicode=";"/><glyph d="M57 650v-73h318v-2L93 0h91l283 592v58z" horiz-adv-x="513" unicode="7"/><glyph d="M19 388v-55h192v-1L40 0h71l171 345v43z" horiz-adv-x="294" unicode=""/><glyph d="M1 650v-73h318v-2L37 0h91l283 592v58z" horiz-adv-x="412" unicode=""/><glyph d="M19 241v-55h192v-1L40-147h71l171 345v43z" horiz-adv-x="294" unicode="₇"/><glyph d="M19 654v-55h192v-1L40 266h71l171 345v43z" horiz-adv-x="294" unicode=""/><glyph d="M405 485H18v-73h297v-2C262 270 122 20 40-98l82-16C223 43 343 266 405 429z" horiz-adv-x="428" unicode=""/><glyph d="M19 831v-55h192v-1L40 443h71l171 345v43z" horiz-adv-x="294" unicode="⁷"/><glyph d="M454 485H67v-73h297v-2C311 270 171 20 89-98l82-16C272 43 392 266 454 429z" horiz-adv-x="530" unicode=""/><glyph d="M412 432c71-3 104-4 127-4l3 67c-18-1-76 0-109 0H287c-146 0-249-96-249-258C38 84 139-11 270-11c110 0 232 78 232 256 0 73-33 144-90 183M272 55c-84 0-145 80-145 186 0 92 45 188 146 188 100 0 142-102 142-184 0-110-63-190-142-190z" horiz-adv-x="554" unicode="σ"/><glyph d="M416 660c-16 0-38-1-64-5-82-10-154-43-208-96C80 495 34 394 34 266 34 97 125-11 264-11c135 0 216 110 216 229 0 127-81 210-196 210-72 0-126-34-157-75h-3c15 107 88 208 226 231 25 4 48 5 66 4M264 57c-92 0-141 79-143 186 0 16 4 29 10 39 24 47 73 80 126 80 81 0 134-56 134-149S340 57 265 57z" horiz-adv-x="513" unicode="6"/><glyph d="M267 394c-10 1-24 0-40-2-56-5-102-24-136-57-41-38-68-99-68-173C23 65 78-5 171-5c80 0 138 62 138 139 0 75-50 125-122 125-42 0-75-19-94-41h-1c10 60 55 111 135 122 14 2 29 2 40 1M170 46c-53 0-81 45-81 99 0 9 2 15 5 21 13 26 40 45 71 45 47 0 76-32 76-81 0-48-29-84-70-84z" horiz-adv-x="332" unicode=""/><glyph d="M418 660c-16 0-38-1-64-5-82-10-154-43-208-96C82 495 36 394 36 266 36 97 127-11 266-11c135 0 216 110 216 229 0 127-81 210-196 210-72 0-126-34-157-75h-3c15 107 88 208 226 231 25 4 48 5 66 4M266 57c-92 0-141 79-143 186 0 16 4 29 10 39 24 47 73 80 126 80 81 0 134-56 134-149S342 57 267 57z" horiz-adv-x="515" unicode=""/><glyph d="M267 247c-10 1-24 0-40-2-56-5-102-24-136-57-41-38-68-99-68-173 0-97 55-167 148-167 80 0 138 62 138 139 0 75-50 125-122 125-42 0-75-19-94-41h-1c10 60 55 111 135 122 14 2 29 2 40 1m-97-295c-53 0-81 45-81 99 0 9 2 15 5 21 13 26 40 45 71 45 47 0 76-32 76-81 0-48-29-84-70-84z" horiz-adv-x="332" unicode="₆"/><glyph d="M267 660c-10 1-24 0-40-2-56-5-102-24-136-57-41-38-68-99-68-173 0-97 55-167 148-167 80 0 138 62 138 139 0 75-50 125-122 125-42 0-75-19-94-41h-1c10 60 55 111 135 122 14 2 29 2 40 1m-97-295c-53 0-81 45-81 99 0 9 2 15 5 21 13 26 40 45 71 45 47 0 76-32 76-81 0-48-29-84-70-84z" horiz-adv-x="332" unicode=""/><glyph d="M432 606C192 593 47 442 47 235 47 88 136-11 269-11c104 0 208 79 208 213 0 119-85 192-187 192-69 0-121-37-146-73h-3c23 114 117 209 297 220M269 56c-81 0-134 69-134 150 0 33 8 57 33 82 18 20 55 43 100 43 73 0 122-52 122-133 0-95-62-142-120-142z" horiz-adv-x="520" unicode=""/><glyph d="M267 837c-10 1-24 0-40-2-56-5-102-24-136-57-41-38-68-99-68-173 0-97 55-167 148-167 80 0 138 62 138 139 0 75-50 125-122 125-42 0-75-19-94-41h-1c10 60 55 111 135 122 14 2 29 2 40 1m-97-295c-53 0-81 45-81 99 0 9 2 15 5 21 13 26 40 45 71 45 47 0 76-32 76-81 0-48-29-84-70-84z" horiz-adv-x="332" unicode="⁶"/><glyph d="M441 606C201 593 56 442 56 235 56 88 145-11 278-11c104 0 208 79 208 213 0 119-85 192-187 192-69 0-121-37-146-73h-3c23 114 117 209 297 220M278 56c-81 0-134 69-134 150 0 33 8 57 33 82 18 20 55 43 100 43 73 0 122-52 122-133 0-95-62-142-120-142z" horiz-adv-x="530" unicode=""/><glyph d="m66-40 280 725h-68L-1-40z" horiz-adv-x="343" unicode="/"/><glyph horiz-adv-x="212"/><glyph d="M151-80c-29 0-52-23-52-51s22-52 50-52c30 0 51 24 51 52s-22 51-49 51" horiz-adv-x="300" unicode=""/><glyph d="M151-181c28 0 49 25 49 51s-21 50-48 50c-29 0-51-24-51-50s22-51 49-51z" horiz-adv-x="300" unicode=""/><glyph d="M161 530c23 46 75 61 75 117 0 44-37 75-84 75-50 0-80-31-98-67l34-20c12 18 27 35 49 35 18 0 33-13 33-34 0-37-44-50-56-94z" horiz-adv-x="300" unicode=""/><glyph d="M169 709c26 46 71 57 71 108 0 41-37 72-83 72-51 0-81-31-99-67l34-20c11 17 28 35 49 35 20 0 33-12 33-31 0-33-36-41-52-84z" horiz-adv-x="300" unicode=""/><glyph d="m-2 685 116-141h56L89 685m60 0 116-141h55l-80 141z" horiz-adv-x="300" unicode=""/><glyph d="M-45 828 83 711h67L58 828m71 0 127-117h67l-91 117z" horiz-adv-x="300" unicode=""/><glyph d="M173 433h31c62 0 99 37 99 87 0 27-7 52-18 72l-67-11c11-18 17-39 17-58 0-25-12-39-47-39h-15z" horiz-adv-x="300" unicode=""/><glyph d="M173 621h30c67 0 100 35 100 86 0 29-7 53-17 75l-68-12c11-18 17-39 17-58 0-26-12-38-47-38h-15z" horiz-adv-x="300" unicode=""/><glyph d="M93-222c62 4 129 34 129 108 0 32-20 60-40 73l-65-14c18-14 34-37 34-60 0-40-36-60-75-66z" horiz-adv-x="300" unicode=""/><glyph d="M93-222c62 4 129 34 129 108 0 33-20 60-40 73l-65-14c18-14 34-37 34-60 0-40-36-59-75-66z" horiz-adv-x="300" unicode=""/><glyph d="M471 0v73H173v2c34 29 58 65 69 108 9 36 7 74 4 112h136v63H238c-6 32-12 64-12 107 0 71 32 125 110 125 42 0 71-10 89-20l20 66c-21 13-57 25-109 25-111 0-192-77-192-195 0-39 6-78 11-108H62v-63h103c4-26 5-46 5-70 0-75-47-141-114-175V0z" horiz-adv-x="513" unicode="£"/><glyph d="M479 0v71H187v2c36 24 62 64 63 116 0 10-1 22-2 33h138v55H237c-4 19-7 40-7 61 0 77 36 126 109 126 40 0 72-10 90-21l19 65c-22 13-59 25-109 25-115 0-192-79-192-194 0-20 4-41 8-62H69v-55h97c3-15 4-30 4-45 0-53-41-99-107-127V0z" horiz-adv-x="530" unicode=""/><glyph d="M514-90v73H122v3l234 295-222 293v4h349v72H22v-59l238-313L9-38v-52z" horiz-adv-x="507" unicode="∑"/><glyph d="M93 573v-89H18v-67h75V153c0-57 9-100 34-126 21-24 54-38 95-38 34 0 61 6 78 13l-4 66c-13-4-27-6-51-6-49 0-66 34-66 94v261h126v67H179v116z" horiz-adv-x="331" unicode="t"/><glyph d="M321 60c-6-1-13-1-21-1-30 0-56 16-56 82v274h150l11 69H126c-79 0-115-14-132-26l12-51c21 4 47 8 98 8h53V139c0-102 34-150 112-150 18 0 38 3 48 8z" horiz-adv-x="413" unicode="τ"/><glyph d="M305 417v67H179v116l-86-27v-89H18v-67h75V302H26v-54h67v-95c0-57 9-100 34-126 21-24 54-38 95-38 34 0 61 6 78 13l-4 66c-13-4-27-6-51-6-47 0-66 32-66 90v96h98v54h-98v115z" horiz-adv-x="331" unicode="ŧ"/><glyph d="M93 573v-89H18v-67h75V153c0-57 9-100 34-126 21-24 54-38 95-38 34 0 61 6 78 13l-4 66c-13-4-27-6-51-6-49 0-66 34-66 94v261h126v67H179v116m98-59c24 10 80 44 80 112 0 32-18 58-35 69l-63-13c16-14 30-36 30-59 0-36-21-61-38-74z" horiz-adv-x="339" unicode="ť"/><glyph d="M93 573v-89H18v-67h75V153c0-57 9-100 34-126 21-24 54-38 95-38 34 0 61 6 78 13l-4 66c-13-4-27-6-51-6-49 0-66 34-66 94v261h126v67H179v116m-57-827c62 4 129 34 129 108 0 32-20 60-40 73l-65-14c18-14 34-37 34-60 0-40-36-60-75-66z" horiz-adv-x="331" unicode="ţ"/><glyph d="M269-11c155 0 228 147 228 372 0 215-71 360-225 360-151 0-234-156-234-360 0-247 88-372 230-372M125 399c0 136 53 257 142 257 97 0 142-115 143-257m0-66c0-163-45-279-139-279-86 0-146 101-146 279z" horiz-adv-x="534" unicode="θ"/><glyph d="M73 669v-867h87V65h2c31-48 85-76 149-76 110 0 220 82 220 259 0 150-90 248-204 247-79 0-132-35-165-88h-2v262m0-389c0 16 5 35 10 49 21 59 74 96 130 96 90 0 143-82 143-178 0-116-58-189-145-189-58 0-109 34-128 89-6 13-10 30-10 44z" horiz-adv-x="569" unicode="þ"/><glyph d="M42 33c32-21 96-44 169-44 156 0 237 91 237 195 0 91-65 151-145 167v2c80 29 120 86 120 153 0 79-58 155-186 155-70 0-136-25-170-50l23-64c28 20 78 43 130 43 81 0 114-46 114-98 0-77-81-110-145-110h-49v-66h49c85 0 167-39 168-130 1-54-34-126-147-126-61 0-119 25-144 41z" horiz-adv-x="513" unicode="3"/><glyph d="M45 317c16 11 49 26 85 26 45 0 63-25 63-49-1-47-54-64-91-64H74v-46h27c53 0 106-20 106-70 1-31-26-67-87-67-38 0-77 15-93 26L9 23C31 8 75-5 123-5c102 0 158 55 158 117 0 51-38 89-93 97v2c48 16 77 50 77 90 0 48-36 94-122 94-49 0-92-16-115-31z" horiz-adv-x="305" unicode=""/><glyph d="M7 33c32-21 96-44 169-44 156 0 237 91 237 195 0 91-65 151-145 167v2c80 29 120 86 120 153 0 79-58 155-186 155-70 0-136-25-170-50l23-64c28 20 78 43 130 43 81 0 114-46 114-98 0-77-81-110-145-110h-49v-66h49c85 0 167-39 168-130 1-54-34-126-147-126-61 0-119 25-144 41z" horiz-adv-x="450" unicode=""/><glyph d="M45 170c16 11 49 26 85 26 45 0 63-25 63-49-1-47-54-64-91-64H74V37h27c53 0 106-20 106-70 1-31-26-67-87-67-38 0-77 15-93 26L9-124c22-15 66-28 114-28 102 0 158 55 158 117 0 51-38 89-93 97v2c48 16 77 50 77 90 0 48-36 94-122 94-49 0-92-16-115-31z" horiz-adv-x="305" unicode="₃"/><glyph d="M45 583c16 11 49 26 85 26 45 0 63-25 63-49-1-47-54-64-91-64H74v-46h27c53 0 106-20 106-70 1-31-26-67-87-67-38 0-77 15-93 26L9 289c22-15 66-28 114-28 102 0 158 55 158 117 0 51-38 89-93 97v2c48 16 77 50 77 90 0 48-36 94-122 94-49 0-92-16-115-31z" horiz-adv-x="305" unicode=""/><glyph d="M17-95c23-9 75-20 127-20 135 0 252 76 252 191 0 85-68 134-147 145v2c68 20 118 71 118 139 0 83-72 134-174 134-66 0-129-24-160-45l18-58c24 13 72 34 123 34 65 0 105-26 105-80 0-62-70-99-163-106l-19-1 2-65c12 1 32 2 55 2 92 0 152-39 152-102 0-73-70-121-169-121-42 0-84 8-109 17z" horiz-adv-x="433" unicode=""/><glyph d="M45 760c16 11 49 26 85 26 45 0 63-25 63-49-1-47-54-64-91-64H74v-46h27c53 0 106-20 106-70 1-31-26-67-87-67-38 0-77 15-93 26L9 466c22-15 66-28 114-28 102 0 158 55 158 117 0 51-38 89-93 97v2c48 16 77 50 77 90 0 48-36 94-122 94-49 0-92-16-115-31z" horiz-adv-x="305" unicode="³"/><glyph d="M61-95c23-9 75-20 127-20 135 0 252 76 252 191 0 85-68 134-147 145v2c68 20 118 71 118 139 0 83-72 134-174 134-66 0-129-24-160-45l18-58c24 13 72 34 123 34 65 0 105-26 105-80 0-62-70-99-163-106l-19-1 2-65c12 1 32 2 55 2 92 0 152-39 152-102 0-73-70-121-169-121-42 0-84 8-109 17z" horiz-adv-x="530" unicode=""/><glyph d="M66 583c16 10 48 26 84 26 46 0 64-25 64-49 0-47-54-63-91-64H95v-46h28c52 0 105-20 106-70 0-31-26-67-88-67-38 0-77 15-93 26l-18-50c23-15 66-28 115-28 102 0 157 55 157 117 0 51-38 89-92 97v2c47 16 76 50 76 90 0 48-36 94-123 94-49 0-91-16-114-32M232-11l379 672h-56L175-11M674 0v103h61v49h-61v243h-73L408 142v-39h200V0m0 152H480l-1 1 97 125c11 16 20 33 33 55h2c-1-19-3-40-3-63z" horiz-adv-x="759" unicode="¾"/><glyph d="M45 760c16 11 49 26 85 26 45 0 63-25 63-49-1-47-54-64-91-64H74v-46h27c53 0 106-20 106-70 1-31-26-67-87-67-38 0-77 15-93 26L9 466c22-15 66-28 114-28 102 0 158 55 158 117 0 51-38 89-93 97v2c48 16 77 50 77 90 0 48-36 94-122 94-49 0-92-16-115-31z" horiz-adv-x="305" unicode=""/><glyph d="M75 567c2 28 10 45 26 45 12 0 23-6 43-18 21-11 40-20 61-20 47 0 70 34 69 101h-47c-2-34-12-43-28-43-12 0-26 8-42 17-23 13-40 22-62 22-43 0-70-39-68-104z" horiz-adv-x="300" unicode="˜"/><glyph d="M73 715c2 27 10 44 26 44 14 0 28-9 47-19 22-11 40-19 61-19 46 0 68 34 67 97h-46c-3-32-12-39-27-39-16 0-32 9-48 18-21 11-37 20-59 20-44 0-70-41-68-102z" horiz-adv-x="300" unicode=""/><glyph d="M137 694 84 551h58l84 143z" horiz-adv-x="301" unicode="΄"/><glyph d="M30 674v-45h87V402h54v227h87v45m348-272-21 272h-78l-47-134c-6-20-12-43-19-68h-1c-7 28-12 48-18 69l-47 133h-81l-20-272h52l10 160c1 25 2 51 2 76h3c6-24 14-56 19-77l49-155h56l49 151c8 25 16 57 23 81h3c1-29 1-55 2-76l10-160z" horiz-adv-x="619" unicode="™"/><glyph d="M460 0v73H168v2l52 48c137 132 224 229 224 349 0 93-59 189-199 189-75 0-139-28-184-66l28-62c30 25 79 55 138 55 97 0 129-61 129-127-1-98-76-182-242-340L45 54V0z" horiz-adv-x="513" unicode="2"/><glyph d="M12 0h270v55H111v2l31 28c76 67 133 122 133 197 0 54-39 113-133 113-50 0-95-19-122-42l21-45c19 13 49 31 84 31 52 0 76-32 76-70 0-51-43-98-126-173L12 37z" horiz-adv-x="311" unicode=""/><glyph d="M418 0v73H126v2l52 48c137 132 224 229 224 349 0 93-59 189-199 189-75 0-139-28-184-66l28-62c30 25 79 55 138 55 97 0 129-61 129-127-1-98-76-182-242-340L3 54V0z" horiz-adv-x="447" unicode=""/><glyph d="M12-147h270v55H111v2l31 28C218 5 275 60 275 135c0 54-39 113-133 113-50 0-95-19-122-42l21-45c19 13 49 31 84 31 52 0 76-32 76-70 0-51-43-98-126-173l-63-59z" horiz-adv-x="311" unicode="₂"/><glyph d="M12 266h270v55H111v2l31 28c76 67 133 122 133 197 0 54-39 113-133 113-50 0-95-19-122-42l21-45c19 13 49 31 84 31 52 0 76-32 76-70 0-51-43-98-126-173l-63-59z" horiz-adv-x="311" unicode=""/><glyph d="M420 0v70H238c-25 0-57-1-81-4v3l51 37c105 74 177 143 177 236 0 99-72 156-174 156-80 0-146-35-181-61l23-57c35 24 84 48 136 48 62 0 108-33 108-98 0-81-74-149-225-248L24 48V0z" horiz-adv-x="448" unicode=""/><glyph d="M12 443h270v55H111v2l31 28c76 67 133 122 133 197 0 54-39 113-133 113-50 0-95-19-122-42l21-45c19 13 49 31 84 31 52 0 76-32 76-70 0-51-43-98-126-173l-63-59z" horiz-adv-x="311" unicode="²"/><glyph d="M462 0v70H280c-25 0-57-1-81-4v3l51 37c105 74 177 143 177 236 0 99-72 156-174 156-80 0-146-35-181-61l23-57c35 24 84 48 136 48 62 0 108-33 108-98 0-81-74-149-225-248L66 48V0z" horiz-adv-x="530" unicode=""/><glyph d="M12 443h270v55H111v2l31 28c76 67 133 122 133 197 0 54-39 113-133 113-50 0-95-19-122-42l21-45c19 13 49 31 84 31 52 0 76-32 76-70 0-51-43-98-126-173l-63-59z" horiz-adv-x="311" unicode=""/><glyph d="M478 484h-88V187c0-16-3-32-8-45-16-39-57-80-116-80-80 0-108 62-108 154v268H70V201C70 31 161-11 237-11c86 0 137 51 160 90h2l5-79h78c-3 38-4 82-4 132z" horiz-adv-x="551" unicode="u"/><glyph d="m321 693-88-143h63l122 143m60-209h-88V187c0-16-3-32-8-45-16-39-57-80-116-80-80 0-108 62-108 154v268H70V201C70 31 161-11 237-11c86 0 137 51 160 90h2l5-79h78c-3 38-4 82-4 132z" horiz-adv-x="551" unicode="ú"/><glyph d="M151 682c0-62 36-124 124-124 75 0 124 50 124 124h-52c-3-33-25-69-72-69-41 0-66 30-72 69m275-198h-88V187c0-16-3-32-8-45-16-39-57-80-116-80-80 0-108 62-108 154v268H70V201C70 31 161-11 237-11c86 0 137 51 160 90h2l5-79h78c-3 38-4 82-4 132z" horiz-adv-x="551" unicode="ŭ"/><glyph d="m244 693-94-143h65l58 95h2l58-95h68l-96 143m173-209h-88V187c0-16-3-32-8-45-16-39-57-80-116-80-80 0-108 62-108 154v268H70V201C70 31 161-11 237-11c86 0 137 51 160 90h2l5-79h78c-3 38-4 82-4 132z" horiz-adv-x="551" unicode="û"/><glyph d="M186 570c29 0 49 24 49 51 0 29-21 51-49 51s-51-23-51-51c0-27 21-51 50-51m186 0c29 0 49 24 49 51 0 29-21 51-49 51s-50-23-50-51c0-27 20-51 49-51m108-86h-88V187c0-16-3-32-8-45-16-39-57-80-116-80-80 0-108 62-108 154v268H70V201C70 31 161-11 237-11c86 0 137 51 160 90h2l5-79h78c-3 38-4 82-4 132z" horiz-adv-x="551" unicode="ü"/><glyph d="m140 693 122-143h62l-87 143m241-209h-88V187c0-16-3-32-8-45-16-39-57-80-116-80-80 0-108 62-108 154v268H70V201C70 31 161-11 237-11c86 0 137 51 160 90h2l5-79h78c-3 38-4 82-4 132z" horiz-adv-x="551" unicode="ù"/><glyph d="M489 581c10-18 17-39 17-58 0-25-12-39-47-39h-69V187c0-16-3-32-8-45-16-39-57-80-116-80-80 0-108 62-108 154v268H70V201C70 31 161-11 237-11c86 0 137 51 160 90h2l5-79h78c-3 38-4 82-4 132v303l11 1c49 2 85 34 85 84 0 27-7 52-18 72z" horiz-adv-x="551" unicode="ư"/><glyph d="m246 693-79-137h55l110 137m58 0-79-137h55l110 137m2-209h-88V187c0-16-3-32-8-45-16-39-57-80-116-80-80 0-108 62-108 154v268H70V201C70 31 161-11 237-11c86 0 137 51 160 90h2l5-79h78c-3 38-4 82-4 132z" horiz-adv-x="551" unicode="ű"/><glyph d="M163 643v-57h225v57m90-159h-88V187c0-16-3-32-8-45-16-39-57-80-116-80-80 0-108 62-108 154v268H70V201C70 31 161-11 237-11c86 0 137 51 160 90h2l5-79h78c-3 38-4 82-4 132z" horiz-adv-x="551" unicode="ū"/><glyph d="M0-75v-50h500v50z" horiz-adv-x="500" unicode="_"/><glyph horiz-adv-x="212"/><glyph d="M30 303v-65h247v65z" horiz-adv-x="291" unicode="­"/><glyph d="M312 692c54 0 90 33 90 77s-33 79-89 79c-58 0-92-36-92-79s35-77 91-77m-1 37c-26 0-43 18-43 40 0 23 15 43 42 43 28 0 45-19 45-42 0-25-17-41-44-41m55 223-106-86h77l143 86m-56-740L496 0h93L359 674H254L25 0h90l70 212m18 68 66 195c13 41 24 82 34 122h2c10-39 20-79 35-123l66-194z" horiz-adv-x="612" unicode="Ǻ"/><glyph d="M297 834 190 728h62l143 106m18-537c0 97-36 198-184 198-61 0-119-17-159-43l20-58c34 22 81 36 126 36 99 0 110-72 110-112v-10c-187 1-291-63-291-180C35 58 85-11 183-11c69 0 121 34 148 72h3l7-61h80c-6 33-8 74-8 116m-85 47c0-9-2-19-5-28-14-41-54-81-117-81-45 0-83 27-83 84 0 94 109 111 205 109m-87 273c57 0 100 39 100 92s-39 94-99 94c-63 0-102-42-102-95 0-51 41-91 101-91m-1 37c-29 0-49 28-49 54 0 31 18 57 49 57 32 0 52-25 52-55s-20-56-52-56" horiz-adv-x="482" unicode="ǻ"/><glyph d="M204 0h88v600h206v74H-1v-74h205m-24-822c62 4 129 34 129 108 0 33-20 60-40 73l-65-14c18-14 34-37 34-60 0-40-36-59-75-66z" horiz-adv-x="497" unicode="Ț"/><glyph d="M93 573v-89H18v-67h75V153c0-57 9-100 34-126 21-24 54-38 95-38 34 0 61 6 78 13l-4 66c-13-4-27-6-51-6-49 0-66 34-66 94v261h126v67H179v116m-57-827c62 4 129 34 129 108 0 32-20 60-40 73l-65-14c18-14 34-37 34-60 0-40-36-60-75-66z" horiz-adv-x="331" unicode="ț"/><glyph d="M63-115C293-88 441 34 441 188c0 107-78 173-179 183v3c68 31 123 89 123 164 0 87-74 147-183 147-68 0-139-27-171-47l18-59c25 13 83 36 137 36 65 0 111-37 111-91 0-79-88-140-201-166l12-62c34 11 73 18 94 18 94 1 147-58 147-132C349 64 212-22 52-46z" horiz-adv-x="480" unicode="Ȝ"/><glyph d="M44-209C276-190 400-73 400 57c0 88-63 147-155 157v3c63 25 106 74 106 140 0 84-67 138-168 138-65 0-126-25-163-49l18-58c24 13 73 38 124 38 64 0 104-32 104-84 0-73-78-113-185-138l13-63c27 8 60 15 88 15 89 0 128-50 128-109 0-155-237-185-275-188z" horiz-adv-x="427" unicode="ȝ"/><glyph d="M314 0v287l226 387h-99l-97-186c-26-51-49-95-68-139h-2c-21 47-41 88-67 139l-95 186H13l213-388V0m-75 788v-55h239v55z" horiz-adv-x="541" unicode="Ȳ"/><glyph d="M124 643v-57h225v57M9 484 188 38c4-11 6-18 6-23s-3-12-7-21c-20-45-50-79-74-98-26-22-55-36-77-43l22-74c22 4 65 19 108 57 60 52 103 137 166 303l132 345h-93l-96-284c-12-35-22-72-31-101h-2c-8 29-20 67-31 99L105 484z" horiz-adv-x="471" unicode="ȳ"/><glyph d="M38 643v-57h225v57z" horiz-adv-x="300" unicode="ˉ"/><glyph d="M91-117c24 47 64 158 82 236l-98-5C69 43 47-64 30-123m89 446c38 0 62 29 62 65 0 39-24 67-62 67-36 0-62-28-62-67 0-36 25-65 61-65z" horiz-adv-x="217" unicode=";"/><glyph d="M25 0h566v50L359 674h-99L25 49m93 24 141 384c17 47 35 103 45 137h3c12-43 33-103 50-150L494 73z" horiz-adv-x="620" unicode="Δ"/><glyph d="M528 73c67 56 133 155 133 293 0 178-117 319-304 319-179 0-314-135-314-327 0-130 65-230 132-285v-4H30V0h254v55c-80 50-150 170-150 296 0 132 79 263 221 263 143 0 216-139 216-262 0-135-69-242-149-297V0h253v69H528z" horiz-adv-x="705" unicode="Ω"/><glyph d="M403 75c8-62 43-86 86-86 14 0 20 1 30 4l7 64c-35 2-46 23-46 76v351h-87V187c0-16-3-32-8-45-16-39-58-81-116-81-77 0-109 62-109 137v286H73V-20c0-77 4-148 14-178h79c-10 40-11 129-11 182v60C176 7 217-9 261-9c72 0 119 46 139 84z" horiz-adv-x="553" unicode="μ"/><glyph d="M408 473c-25 14-66 22-109 22-168 0-261-131-261-261S119 33 220 4c30-8 66-15 99-21-2-24-19-86-33-109l59-18c26 33 58 118 58 173 0 10-3 13-10 15-46 7-81 13-129 26-87 26-137 77-137 172 0 99 68 185 172 185 38 0 65-8 89-18z" horiz-adv-x="417" unicode="ς"/><glyph d="M424 212 496 0h93L359 674H254L25 0h90l70 212m18 68 66 195c13 41 24 82 34 122h2c10-39 20-79 35-123l66-194M304-80c-29 0-52-23-52-51s22-52 50-52c30 0 51 24 51 52s-22 51-49 51" horiz-adv-x="612" unicode="Ạ"/><glyph d="M413 297c0 97-36 198-184 198-61 0-119-17-159-43l20-58c34 22 81 36 126 36 99 0 110-72 110-112v-10c-187 1-291-63-291-180C35 58 85-11 183-11c69 0 121 34 148 72h3l7-61h80c-6 33-8 74-8 116m-85 47c0-9-2-19-5-28-14-41-54-81-117-81-45 0-83 27-83 84 0 94 109 111 205 109M241-80c-29 0-52-23-52-51s22-52 50-52c30 0 51 24 51 52s-22 51-49 51" horiz-adv-x="482" unicode="ạ"/><glyph d="M424 212 496 0h93L359 674H254L25 0h90l70 212m18 68 66 195c13 41 24 82 34 122h2c10-39 20-79 35-123l66-194m-75 429c26 46 71 57 71 108 0 41-37 72-83 72-51 0-81-31-99-67l34-20c11 17 28 35 49 35 20 0 33-12 33-31 0-33-36-41-52-84z" horiz-adv-x="612" unicode="Ả"/><glyph d="M413 297c0 97-36 198-184 198-61 0-119-17-159-43l20-58c34 22 81 36 126 36 99 0 110-72 110-112v-10c-187 1-291-63-291-180C35 58 85-11 183-11c69 0 121 34 148 72h3l7-61h80c-6 33-8 74-8 116m-85 47c0-9-2-19-5-28-14-41-54-81-117-81-45 0-83 27-83 84 0 94 109 111 205 109m-73 283c23 46 75 61 75 117 0 44-37 75-84 75-50 0-80-31-98-67l34-20c12 18 27 35 49 35 18 0 33-13 33-34 0-37-44-50-56-94z" horiz-adv-x="482" unicode="ả"/><glyph d="M424 212 496 0h93L359 674H254L25 0h90l70 212m18 68 66 195c13 41 24 82 34 122h2c10-39 20-79 35-123l66-194M280 824l-92-114h67l56 70h2l55-70h70l-95 114m131 76-84-105h52l121 105z" horiz-adv-x="612" unicode="Ấ"/><glyph d="M413 297c0 97-36 198-184 198-61 0-119-17-159-43l20-58c34 22 81 36 126 36 99 0 110-72 110-112v-10c-187 1-291-63-291-180C35 58 85-11 183-11c69 0 121 34 148 72h3l7-61h80c-6 33-8 74-8 116m-85 47c0-9-2-19-5-28-14-41-54-81-117-81-45 0-83 27-83 84 0 94 109 111 205 109M201 693l-84-143h64l51 94h2l51-94h67l-86 143m127 82-69-132h51l99 132z" horiz-adv-x="482" unicode="ấ"/><glyph d="M424 212 496 0h93L359 674H254L25 0h90l70 212m18 68 66 195c13 41 24 82 34 122h2c10-39 20-79 35-123l66-194m-70 601 109-105h54l-72 105m-154-57-92-114h68l55 70h2l55-70h70l-94 114z" horiz-adv-x="612" unicode="Ầ"/><glyph d="M413 297c0 97-36 198-184 198-61 0-119-17-159-43l20-58c34 22 81 36 126 36 99 0 110-72 110-112v-10c-187 1-291-63-291-180C35 58 85-11 183-11c69 0 121 34 148 72h3l7-61h80c-6 33-8 74-8 116m-85 47c0-9-2-19-5-28-14-41-54-81-117-81-45 0-83 27-83 84 0 94 109 111 205 109m-56 528 93-132h51l-64 132m-152-82-84-143h64l51 94h2l51-94h67l-86 143z" horiz-adv-x="482" unicode="ầ"/><glyph d="M424 212 496 0h93L359 674H254L25 0h90l70 212m18 68 66 195c13 41 24 82 34 122h2c10-39 20-79 35-123l66-194M277 824l-93-114h68l55 70h2l56-70h70l-95 114m119-70c26 46 69 56 69 104 0 40-34 70-79 70-49 0-78-29-95-64l32-19c11 17 28 37 49 37 19 0 34-14 34-33 0-32-36-42-52-83z" horiz-adv-x="612" unicode="Ẩ"/><glyph d="M413 297c0 97-36 198-184 198-61 0-119-17-159-43l20-58c34 22 81 36 126 36 99 0 110-72 110-112v-10c-187 1-291-63-291-180C35 58 85-11 183-11c69 0 121 34 148 72h3l7-61h80c-6 33-8 74-8 116m-85 47c0-9-2-19-5-28-14-41-54-81-117-81-45 0-83 27-83 84 0 94 109 111 205 109M198 693l-84-143h64l51 94h2l51-94h67l-86 143m115-58c26 45 69 54 69 103 0 39-35 71-80 71-49 0-78-30-95-64l32-20c11 17 27 36 48 36 19 0 33-14 33-33 0-31-35-40-51-82z" horiz-adv-x="482" unicode="ẩ"/><glyph d="M424 212 496 0h93L359 674H254L25 0h90l70 212m18 68 66 195c13 41 24 82 34 122h2c10-39 20-79 35-123l66-194M274 824 171 710h72l63 69h2l64-69h73L341 824m-105 13c1 24 10 40 25 40 13 0 24-6 44-17 21-11 39-21 61-21 47 0 69 34 68 96h-47c-2-32-12-41-27-41-13 0-27 8-43 16-23 13-40 22-62 22-42 0-69-38-68-95z" horiz-adv-x="612" unicode="Ẫ"/><glyph d="M413 297c0 97-36 198-184 198-61 0-119-17-159-43l20-58c34 22 81 36 126 36 99 0 110-72 110-112v-10c-187 1-291-63-291-180C35 58 85-11 183-11c69 0 121 34 148 72h3l7-61h80c-6 33-8 74-8 116m-85 47c0-9-2-19-5-28-14-41-54-81-117-81-45 0-83 27-83 84 0 94 109 111 205 109M208 668l-89-118h67l53 73h2l54-73h69l-92 118m-103 12c1 23 10 39 25 39 13 0 24-6 44-17 21-11 39-21 61-21 47 0 69 34 68 96h-47c-2-32-12-40-27-40-13 0-27 7-43 16-23 12-40 22-62 22-42 0-69-38-68-95z" horiz-adv-x="482" unicode="ẫ"/><glyph d="M424 212 496 0h93L359 674H254L25 0h90l70 212m18 68 66 195c13 41 24 82 34 122h2c10-39 20-79 35-123l66-194M275 824 172 710h71l64 69h2l64-69h73L342 824M302-181c28 0 49 25 49 51s-21 50-48 50c-29 0-51-24-51-50s22-51 49-51z" horiz-adv-x="612" unicode="Ậ"/><glyph d="M413 297c0 97-36 198-184 198-61 0-119-17-159-43l20-58c34 22 81 36 126 36 99 0 110-72 110-112v-10c-187 1-291-63-291-180C35 58 85-11 183-11c69 0 121 34 148 72h3l7-61h80c-6 33-8 74-8 116m-85 47c0-9-2-19-5-28-14-41-54-81-117-81-45 0-83 27-83 84 0 94 109 111 205 109M210 693l-94-143h65l58 95h2l58-95h68l-96 143M241-80c-29 0-52-23-52-51s22-52 50-52c30 0 51 24 51 52s-22 51-49 51" horiz-adv-x="482" unicode="ậ"/><glyph d="M424 212 496 0h93L359 674H254L25 0h90l70 212m18 68 66 195c13 41 24 82 34 122h2c10-39 20-79 35-123l66-194M185 802c7-55 45-103 123-103 79 0 120 50 126 103h-46c-8-27-27-49-79-49-49 0-70 25-76 49m114 94-74-105h54l112 105z" horiz-adv-x="612" unicode="Ắ"/><glyph d="M413 297c0 97-36 198-184 198-61 0-119-17-159-43l20-58c34 22 81 36 126 36 99 0 110-72 110-112v-10c-187 1-291-63-291-180C35 58 85-11 183-11c69 0 121 34 148 72h3l7-61h80c-6 33-8 74-8 116m-85 47c0-9-2-19-5-28-14-41-54-81-117-81-45 0-83 27-83 84 0 94 109 111 205 109m-49 526-79-131h53l111 131M108 657c1-63 41-124 129-124 75 0 128 49 129 124h-50c-3-34-28-69-79-69-44 0-73 30-79 69z" horiz-adv-x="482" unicode="ắ"/><glyph d="M424 212 496 0h93L359 674H254L25 0h90l70 212m18 68 66 195c13 41 24 82 34 122h2c10-39 20-79 35-123l66-194M185 896l112-105h54l-74 105m-91-94c7-55 45-103 123-103 79 0 120 50 126 103h-46c-8-27-28-49-79-49-49 0-70 25-76 49z" horiz-adv-x="612" unicode="Ằ"/><glyph d="M413 297c0 97-36 198-184 198-61 0-119-17-159-43l20-58c34 22 81 36 126 36 99 0 110-72 110-112v-10c-187 1-291-63-291-180C35 58 85-11 183-11c69 0 121 34 148 72h3l7-61h80c-6 33-8 74-8 116m-85 47c0-9-2-19-5-28-14-41-54-81-117-81-45 0-83 27-83 84 0 94 109 111 205 109M113 773l110-131h54l-80 131m-89-116c1-63 41-124 129-124 76 0 128 49 129 124h-49c-3-34-29-69-80-69-44 0-73 30-79 69z" horiz-adv-x="482" unicode="ằ"/><glyph d="M424 212 496 0h93L359 674H254L25 0h90l70 212m18 68 66 195c13 41 24 82 34 122h2c10-39 20-79 35-123l66-194m-82 498c27 45 69 55 69 104 0 39-34 70-79 70-49 0-78-29-95-64l32-19c11 17 27 35 48 35 19 0 33-13 33-32 0-31-35-41-51-82m-95 12c7-55 46-103 123-103 79 0 120 50 127 103h-47c-8-27-27-49-78-49-50 0-71 25-77 49z" horiz-adv-x="612" unicode="Ẳ"/><glyph d="M413 297c0 97-36 198-184 198-61 0-119-17-159-43l20-58c34 22 81 36 126 36 99 0 110-72 110-112v-10c-187 1-291-63-291-180C35 58 85-11 183-11c69 0 121 34 148 72h3l7-61h80c-6 33-8 74-8 116m-85 47c0-9-2-19-5-28-14-41-54-81-117-81-45 0-83 27-83 84 0 94 109 111 205 109m-79 387c26 45 69 54 69 103 0 39-35 71-80 71-49 0-78-30-95-64l32-20c11 17 27 36 47 36s34-14 34-33c0-31-35-40-51-82m-98 12c1-63 41-124 129-124 75 0 128 49 129 124h-50c-3-34-28-69-79-69-44 0-73 30-79 69z" horiz-adv-x="482" unicode="ẳ"/><glyph d="M424 212 496 0h93L359 674H254L25 0h90l70 212m18 68 66 195c13 41 24 82 34 122h2c10-39 20-79 35-123l66-194M232 836c3 15 9 31 25 31 12 0 23-6 43-17 21-11 40-21 61-21 47 0 69 34 68 96h-46c-3-32-12-40-28-40-12 0-26 7-42 16-24 12-40 21-62 21-43 0-66-36-68-86m-3-34c6-55 45-103 123-103 79 0 120 50 126 103h-47c-8-27-27-49-78-49-49 0-70 25-77 49z" horiz-adv-x="612" unicode="Ẵ"/><glyph d="M413 297c0 97-36 198-184 198-61 0-119-17-159-43l20-58c34 22 81 36 126 36 99 0 110-72 110-112v-10c-187 1-291-63-291-180C35 58 85-11 183-11c69 0 121 34 148 72h3l7-61h80c-6 33-8 74-8 116m-85 47c0-9-2-19-5-28-14-41-54-81-117-81-45 0-83 27-83 84 0 94 109 111 205 109M168 698c2 14 9 30 24 30 12 0 24-6 44-16 20-12 39-21 60-21 47 0 70 33 69 96h-47c-2-32-12-41-28-41-12 0-26 8-42 16-23 12-40 22-62 22-43 0-66-37-68-86m-5-41c1-63 39-124 127-124 75 0 126 49 127 124h-49c-3-34-28-70-78-70-43 0-72 31-78 70z" horiz-adv-x="482" unicode="ẵ"/><glyph d="M424 212 496 0h93L359 674H254L25 0h90l70 212m18 68 66 195c13 41 24 82 34 122h2c10-39 20-79 35-123l66-194M182 832c2-60 38-106 123-106 86 0 123 47 125 106h-51c-5-26-24-49-73-49s-67 26-72 49m71-1013c28 0 49 25 49 51s-21 50-48 50c-29 0-51-24-51-50s22-51 49-51z" horiz-adv-x="612" unicode="Ặ"/><glyph d="M413 297c0 97-36 198-184 198-61 0-119-17-159-43l20-58c34 22 81 36 126 36 99 0 110-72 110-112v-10c-187 1-291-63-291-180C35 58 85-11 183-11c69 0 121 34 148 72h3l7-61h80c-6 33-8 74-8 116m-85 47c0-9-2-19-5-28-14-41-54-81-117-81-45 0-83 27-83 84 0 94 109 111 205 109M117 682c0-62 36-124 124-124 75 0 124 50 124 124h-52c-3-33-25-69-72-69-41 0-66 30-72 69m72-762c-29 0-52-23-52-51s22-52 50-52c30 0 51 24 51 52s-22 51-49 51" horiz-adv-x="482" unicode="ặ"/><glyph d="M425 388H163v213h277v73H76V0h379v73H163v243h262M246-181c28 0 49 25 49 51s-21 50-48 50c-29 0-51-24-51-50s22-51 49-51z" horiz-adv-x="492" unicode="Ẹ"/><glyph d="M462 226c1 9 3 23 3 41 0 89-42 228-200 228-141 0-227-115-227-261S127-11 276-11c77 0 130 17 161 31l-15 63c-33-14-71-25-134-25-88 0-164 49-166 168m1 63c7 61 46 143 135 143 99 0 123-87 122-143M251-80c-29 0-52-23-52-51s22-52 50-52c30 0 51 24 51 52s-22 51-49 51" horiz-adv-x="501" unicode="ẹ"/><glyph d="M425 388H163v213h277v73H76V0h379v73H163v243h262M291 709c26 46 71 57 71 108 0 41-37 72-83 72-51 0-81-31-99-67l34-20c11 17 28 35 49 35 20 0 33-12 33-31 0-33-36-41-52-84z" horiz-adv-x="492" unicode="Ẻ"/><glyph d="M462 226c1 9 3 23 3 41 0 89-42 228-200 228-141 0-227-115-227-261S127-11 276-11c77 0 130 17 161 31l-15 63c-33-14-71-25-134-25-88 0-164 49-166 168m1 63c7 61 46 143 135 143 99 0 123-87 122-143M264 530c23 46 75 61 75 117 0 44-37 75-84 75-50 0-80-31-98-67l34-20c12 18 27 35 49 35 18 0 33-13 33-34 0-37-44-50-56-94z" horiz-adv-x="501" unicode="ẻ"/><glyph d="M425 388H163v213h277v73H76V0h379v73H163v243h262M189 715c2 27 10 44 26 44 14 0 28-9 47-19 22-11 40-19 61-19 46 0 68 34 67 97h-46c-3-32-12-39-27-39-16 0-32 9-48 18-21 11-37 20-59 20-44 0-70-41-68-102z" horiz-adv-x="492" unicode="Ẽ"/><glyph d="M175 567c2 28 10 45 26 45 12 0 23-6 43-18 21-11 40-20 61-20 47 0 70 34 69 101h-47c-2-34-12-43-28-43-12 0-26 8-42 17-23 13-40 22-62 22-43 0-70-39-68-104m335-341c1 9 3 23 3 41 0 89-42 228-200 228-141 0-227-115-227-261S127-11 276-11c77 0 130 17 161 31l-15 63c-33-14-71-25-134-25-88 0-164 49-166 168m1 63c7 61 46 143 135 143 99 0 123-87 122-143z" horiz-adv-x="501" unicode="ẽ"/><glyph d="M425 388H163v213h277v73H76V0h379v73H163v243h262M230 824l-92-114h67l56 70h2l55-70h70l-95 114m131 76-84-105h52l121 105z" horiz-adv-x="492" unicode="Ế"/><glyph d="M462 226c1 9 3 23 3 41 0 89-42 228-200 228-141 0-227-115-227-261S127-11 276-11c77 0 130 17 161 31l-15 63c-33-14-71-25-134-25-88 0-164 49-166 168m1 63c7 61 46 143 135 143 99 0 123-87 122-143M234 693l-84-143h64l51 94h2l51-94h67l-86 143m127 82-69-132h51l99 132z" horiz-adv-x="501" unicode="ế"/><glyph d="M425 388H163v213h277v73H76V0h379v73H163v243h262M289 881l109-105h54l-72 105m-154-57-92-114h68l55 70h2l55-70h70l-94 114z" horiz-adv-x="492" unicode="Ề"/><glyph d="M462 226c1 9 3 23 3 41 0 89-42 228-200 228-141 0-227-115-227-261S127-11 276-11c77 0 130 17 161 31l-15 63c-33-14-71-25-134-25-88 0-164 49-166 168m1 63c7 61 46 143 135 143 99 0 123-87 122-143m-77 486 93-132h51l-64 132m-152-82-84-143h64l51 94h2l51-94h67l-86 143z" horiz-adv-x="501" unicode="ề"/><glyph d="M425 388H163v213h277v73H76V0h379v73H163v243h262M226 824l-93-114h68l55 70h2l56-70h70l-95 114m119-70c26 46 69 56 69 104 0 40-34 70-79 70-49 0-78-29-95-64l32-19c11 17 28 37 49 37 19 0 34-14 34-33 0-32-36-42-52-83z" horiz-adv-x="492" unicode="Ể"/><glyph d="M462 226c1 9 3 23 3 41 0 89-42 228-200 228-141 0-227-115-227-261S127-11 276-11c77 0 130 17 161 31l-15 63c-33-14-71-25-134-25-88 0-164 49-166 168m1 63c7 61 46 143 135 143 99 0 123-87 122-143M226 693l-84-143h64l51 94h2l51-94h67l-86 143m115-58c26 45 69 54 69 103 0 39-35 71-80 71-49 0-78-30-95-64l32-20c11 17 27 36 48 36 19 0 33-14 33-33 0-31-35-40-51-82z" horiz-adv-x="501" unicode="ể"/><glyph d="M425 388H163v213h277v73H76V0h379v73H163v243h262M235 824 132 710h72l63 69h2l64-69h73L302 824m-105 13c1 24 10 40 25 40 13 0 24-6 44-17 21-11 39-21 61-21 47 0 69 34 68 96h-47c-2-32-12-41-27-41-13 0-27 8-43 16-23 13-40 22-62 22-42 0-69-38-68-95z" horiz-adv-x="492" unicode="Ễ"/><glyph d="M462 226c1 9 3 23 3 41 0 89-42 228-200 228-141 0-227-115-227-261S127-11 276-11c77 0 130 17 161 31l-15 63c-33-14-71-25-134-25-88 0-164 49-166 168m1 63c7 61 46 143 135 143 99 0 123-87 122-143M228 668l-89-118h67l53 73h2l54-73h69l-92 118m-103 12c1 23 10 39 25 39 13 0 24-6 44-17 21-11 39-21 61-21 47 0 69 34 68 96h-47c-2-32-12-40-27-40-13 0-27 7-43 16-23 12-40 22-62 22-42 0-69-38-68-95z" horiz-adv-x="501" unicode="ễ"/><glyph d="M425 388H163v213h277v73H76V0h379v73H163v243h262M228 824 125 710h71l64 69h2l64-69h73L295 824M261-181c28 0 49 25 49 51s-21 50-48 50c-29 0-51-24-51-50s22-51 49-51z" horiz-adv-x="492" unicode="Ệ"/><glyph d="M462 226c1 9 3 23 3 41 0 89-42 228-200 228-141 0-227-115-227-261S127-11 276-11c77 0 130 17 161 31l-15 63c-33-14-71-25-134-25-88 0-164 49-166 168m1 63c7 61 46 143 135 143 99 0 123-87 122-143M219 693l-94-143h65l58 95h2l58-95h68l-96 143M251-80c-29 0-52-23-52-51s22-52 50-52c30 0 51 24 51 52s-22 51-49 51" horiz-adv-x="501" unicode="ệ"/><glyph d="M76 674V0h87v674m-19 35c26 46 71 57 71 108 0 41-37 72-83 72-51 0-81-31-99-67l34-20c11 17 28 35 49 35 20 0 33-12 33-31 0-33-36-41-52-84z" horiz-adv-x="239" unicode="Ỉ"/><glyph d="M161 0v484H73V0m58 530c23 46 75 61 75 117 0 44-37 75-84 75-50 0-80-31-98-67l34-20c12 18 27 35 49 35 18 0 33-13 33-34 0-37-44-50-56-94z" horiz-adv-x="234" unicode="ỉ"/><glyph d="M76 674V0h87v674m-43-855c28 0 49 25 49 51s-21 50-48 50c-29 0-51-24-51-50s22-51 49-51z" horiz-adv-x="239" unicode="Ị"/><glyph d="M161 0v484H73V0m44 675c-32 0-55-24-55-55 0-30 22-54 53-54 35 0 57 24 56 54 0 31-21 55-54 55m0-755c-29 0-52-23-52-51s22-52 50-52c30 0 51 24 51 52s-22 51-49 51" horiz-adv-x="234" unicode="ị"/><glyph d="M349 685C169 685 36 545 36 331 36 127 161-11 339-11c172 0 313 123 313 355 0 200-119 341-303 341m-4-71c145 0 215-140 215-274 0-153-78-280-216-280-137 0-215 129-215 273 0 148 72 281 216 281m0-795c28 0 49 25 49 51s-21 50-48 50c-29 0-51-24-51-50s22-51 49-51z" horiz-adv-x="689" unicode="Ọ"/><glyph d="M278 495c-134 0-240-95-240-257C38 85 139-11 270-11c117 0 241 78 241 257 0 148-94 249-233 249m-2-66c104 0 145-104 145-186 0-109-63-188-147-188-86 0-147 80-147 186 0 92 45 188 149 188m-1-509c-29 0-52-23-52-51s22-52 50-52c30 0 51 24 51 52s-22 51-49 51" horiz-adv-x="549" unicode="ọ"/><glyph d="M349 685C169 685 36 545 36 331 36 127 161-11 339-11c172 0 313 123 313 355 0 200-119 341-303 341m-4-71c145 0 215-140 215-274 0-153-78-280-216-280-137 0-215 129-215 273 0 148 72 281 216 281m23 95c26 46 71 57 71 108 0 41-37 72-83 72-51 0-81-31-99-67l34-20c11 17 28 35 49 35 20 0 33-12 33-31 0-33-36-41-52-84z" horiz-adv-x="689" unicode="Ỏ"/><glyph d="M278 495c-134 0-240-95-240-257C38 85 139-11 270-11c117 0 241 78 241 257 0 148-94 249-233 249m-2-66c104 0 145-104 145-186 0-109-63-188-147-188-86 0-147 80-147 186 0 92 45 188 149 188m12 101c23 46 75 61 75 117 0 44-37 75-84 75-50 0-80-31-98-67l34-20c12 18 27 35 49 35 18 0 33-13 33-34 0-37-44-50-56-94z" horiz-adv-x="549" unicode="ỏ"/><glyph d="M349 685C169 685 36 545 36 331 36 127 161-11 339-11c172 0 313 123 313 355 0 200-119 341-303 341m-4-71c145 0 215-140 215-274 0-153-78-280-216-280-137 0-215 129-215 273 0 148 72 281 216 281m-24 210-92-114h67l56 70h2l55-70h70l-95 114m131 76-84-105h52l121 105z" horiz-adv-x="689" unicode="Ố"/><glyph d="M278 495c-134 0-240-95-240-257C38 85 139-11 270-11c117 0 241 78 241 257 0 148-94 249-233 249m-2-66c104 0 145-104 145-186 0-109-63-188-147-188-86 0-147 80-147 186 0 92 45 188 149 188m-30 264-84-143h64l51 94h2l51-94h67l-86 143m127 82-69-132h51l99 132z" horiz-adv-x="549" unicode="ố"/><glyph d="M349 685C169 685 36 545 36 331 36 127 161-11 339-11c172 0 313 123 313 355 0 200-119 341-303 341m-4-71c145 0 215-140 215-274 0-153-78-280-216-280-137 0-215 129-215 273 0 148 72 281 216 281m34 267 109-105h54l-72 105m-154-57-92-114h68l55 70h2l55-70h70l-94 114z" horiz-adv-x="689" unicode="Ồ"/><glyph d="M278 495c-134 0-240-95-240-257C38 85 139-11 270-11c117 0 241 78 241 257 0 148-94 249-233 249m-2-66c104 0 145-104 145-186 0-109-63-188-147-188-86 0-147 80-147 186 0 92 45 188 149 188m42 346 93-132h51l-64 132m-152-82-84-143h64l51 94h2l51-94h67l-86 143z" horiz-adv-x="549" unicode="ồ"/><glyph d="M349 685C169 685 36 545 36 331 36 127 161-11 339-11c172 0 313 123 313 355 0 200-119 341-303 341m-4-71c145 0 215-140 215-274 0-153-78-280-216-280-137 0-215 129-215 273 0 148 72 281 216 281m-27 210-93-114h68l55 70h2l56-70h70l-95 114m119-70c26 46 69 56 69 104 0 40-34 70-79 70-49 0-78-29-95-64l32-19c11 17 28 37 49 37 19 0 34-14 34-33 0-32-36-42-52-83z" horiz-adv-x="689" unicode="Ổ"/><glyph d="M278 495c-134 0-240-95-240-257C38 85 139-11 270-11c117 0 241 78 241 257 0 148-94 249-233 249m-2-66c104 0 145-104 145-186 0-109-63-188-147-188-86 0-147 80-147 186 0 92 45 188 149 188m-35 264-84-143h64l51 94h2l51-94h67l-86 143m115-58c26 45 69 54 69 103 0 39-35 71-80 71-49 0-78-30-95-64l32-20c11 17 27 36 48 36 19 0 33-14 33-33 0-31-35-40-51-82z" horiz-adv-x="549" unicode="ổ"/><glyph d="M349 685C169 685 36 545 36 331 36 127 161-11 339-11c172 0 313 123 313 355 0 200-119 341-303 341m-4-71c145 0 215-140 215-274 0-153-78-280-216-280-137 0-215 129-215 273 0 148 72 281 216 281m-34 210L208 710h72l63 69h2l64-69h73L378 824m-105 13c1 24 10 40 25 40 13 0 24-6 44-17 21-11 39-21 61-21 47 0 69 34 68 96h-47c-2-32-12-41-27-41-13 0-27 8-43 16-23 13-40 22-62 22-42 0-69-38-68-95z" horiz-adv-x="689" unicode="Ỗ"/><glyph d="M278 495c-134 0-240-95-240-257C38 85 139-11 270-11c117 0 241 78 241 257 0 148-94 249-233 249m-2-66c104 0 145-104 145-186 0-109-63-188-147-188-86 0-147 80-147 186 0 92 45 188 149 188m-35 239-89-118h67l53 73h2l54-73h69l-92 118m-103 12c1 23 10 39 25 39 13 0 24-6 44-17 21-11 39-21 61-21 47 0 69 34 68 96h-47c-2-32-12-40-27-40-13 0-27 7-43 16-23 12-40 22-62 22-42 0-69-38-68-95z" horiz-adv-x="549" unicode="ỗ"/><glyph d="M349 685C169 685 36 545 36 331 36 127 161-11 339-11c172 0 313 123 313 355 0 200-119 341-303 341m-4-71c145 0 215-140 215-274 0-153-78-280-216-280-137 0-215 129-215 273 0 148 72 281 216 281m-35 210L207 710h71l64 69h2l64-69h73L377 824M345-181c28 0 49 25 49 51s-21 50-48 50c-29 0-51-24-51-50s22-51 49-51z" horiz-adv-x="689" unicode="Ộ"/><glyph d="M278 495c-134 0-240-95-240-257C38 85 139-11 270-11c117 0 241 78 241 257 0 148-94 249-233 249m-2-66c104 0 145-104 145-186 0-109-63-188-147-188-86 0-147 80-147 186 0 92 45 188 149 188m-33 264-94-143h65l58 95h2l58-95h68l-96 143M275-80c-29 0-52-23-52-51s22-52 50-52c30 0 51 24 51 52s-22 51-49 51" horiz-adv-x="549" unicode="ộ"/><glyph d="M344 60c-138 0-216 131-215 273-1 146 71 281 216 281s215-140 215-274c0-153-78-280-216-280m249 680c9-18 16-40 16-64 0-29-12-44-45-44-32 0-80 26-111 36-26 9-64 17-104 17-180 0-313-140-313-354C36 127 161-11 339-11c172 0 313 123 313 355 0 105-33 186-78 238 72-7 105 34 105 89 0 34-8 60-18 82m-268 74-93-117h72l127 117z" horiz-adv-x="689" unicode="Ớ"/><glyph d="M276 429c104 0 145-104 145-186 0-109-63-188-147-188-86 0-147 80-147 186 0 92 45 188 149 188m194 125c9-17 16-37 16-59 0-26-14-40-40-40-31 0-61 19-85 26-27 9-53 14-83 14-134 0-240-95-240-257C38 85 139-11 270-11c117 0 241 78 241 257 0 65-18 120-50 160 61-3 93 33 93 87 0 28-7 52-17 73M319 693l-88-143h63l122 143z" horiz-adv-x="553" unicode="ớ"/><glyph d="M344 60c-138 0-216 131-215 273-1 146 71 281 216 281s215-140 215-274c0-153-78-280-216-280m249 680c9-18 16-40 16-64 0-29-12-44-45-44-32 0-80 26-111 36-26 9-64 17-104 17-180 0-313-140-313-354C36 127 161-11 339-11c172 0 313 123 313 355 0 105-33 186-78 238 72-7 105 34 105 89 0 34-8 60-18 82m-455 74 127-116h72l-93 116z" horiz-adv-x="689" unicode="Ờ"/><glyph d="M276 429c104 0 145-104 145-186 0-109-63-188-147-188-86 0-147 80-147 186 0 92 45 188 149 188m194 125c9-17 16-37 16-59 0-26-14-40-40-40-31 0-61 19-85 26-27 9-53 14-83 14-134 0-240-95-240-257C38 85 139-11 270-11c117 0 241 78 241 257 0 65-18 120-50 160 61-3 93 33 93 87 0 28-7 52-17 73M146 693l122-143h62l-87 143z" horiz-adv-x="553" unicode="ờ"/><glyph d="M344 60c-138 0-216 131-215 273-1 146 71 281 216 281s215-140 215-274c0-153-78-280-216-280m249 680c9-18 16-40 16-64 0-29-12-44-45-44-32 0-80 26-111 36-26 9-64 17-104 17-180 0-313-140-313-354C36 127 161-11 339-11c172 0 313 123 313 355 0 105-33 186-78 238 72-7 105 34 105 89 0 34-8 60-18 82m-293-44c26 46 71 57 71 108 0 41-37 72-83 72-51 0-81-31-99-67l34-20c11 17 28 35 49 35 20 0 33-12 33-31 0-33-36-41-52-84z" horiz-adv-x="689" unicode="Ở"/><glyph d="M276 429c104 0 145-104 145-186 0-109-63-188-147-188-86 0-147 80-147 186 0 92 45 188 149 188m194 125c9-17 16-37 16-59 0-26-14-40-40-40-31 0-61 19-85 26-27 9-53 14-83 14-134 0-240-95-240-257C38 85 139-11 270-11c117 0 241 78 241 257 0 65-18 120-50 160 61-3 93 33 93 87 0 28-7 52-17 73m-249-36c23 46 75 61 75 117 0 44-37 75-84 75-50 0-80-31-98-67l34-20c12 18 27 35 49 35 18 0 33-13 33-34 0-37-44-50-56-94z" horiz-adv-x="553" unicode="ở"/><glyph d="M344 60c-138 0-216 131-215 273-1 146 71 281 216 281s215-140 215-274c0-153-78-280-216-280m249 680c9-18 16-40 16-64 0-29-12-44-45-44-32 0-80 26-111 36-26 9-64 17-104 17-180 0-313-140-313-354C36 127 161-11 339-11c172 0 313 123 313 355 0 105-33 186-78 238 72-7 105 34 105 89 0 34-8 60-18 82m-387-38c2 27 10 44 26 44 14 0 28-9 47-19 22-11 40-19 61-19 46 0 68 34 67 97h-46c-3-32-12-39-27-39-16 0-32 9-48 18-21 11-37 20-59 20-44 0-70-41-68-102z" horiz-adv-x="689" unicode="Ỡ"/><glyph d="M276 429c104 0 145-104 145-186 0-109-63-188-147-188-86 0-147 80-147 186 0 92 45 188 149 188m194 125c9-17 16-37 16-59 0-26-14-40-40-40-31 0-61 19-85 26-27 9-53 14-83 14-134 0-240-95-240-257C38 85 139-11 270-11c117 0 241 78 241 257 0 65-18 120-50 160 61-3 93 33 93 87 0 28-7 52-17 73m-338 1c2 28 10 45 26 45 12 0 23-6 43-18 21-11 40-20 61-20 47 0 70 34 69 101h-47c-2-34-12-43-28-43-12 0-26 8-42 17-23 13-40 22-62 22-43 0-70-39-68-104z" horiz-adv-x="553" unicode="ỡ"/><glyph d="M344 60c-138 0-216 131-215 273-1 146 71 281 216 281s215-140 215-274c0-153-78-280-216-280m249 680c9-18 16-40 16-64 0-29-12-44-45-44-32 0-80 26-111 36-26 9-64 17-104 17-180 0-313-140-313-354C36 127 161-11 339-11c172 0 313 123 313 355 0 105-33 186-78 238 72-7 105 34 105 89 0 34-8 60-18 82M345-181c28 0 49 25 49 51s-21 50-48 50c-29 0-51-24-51-50s22-51 49-51z" horiz-adv-x="689" unicode="Ợ"/><glyph d="M276 429c104 0 145-104 145-186 0-109-63-188-147-188-86 0-147 80-147 186 0 92 45 188 149 188m194 125c9-17 16-37 16-59 0-26-14-40-40-40-31 0-61 19-85 26-27 9-53 14-83 14-134 0-240-95-240-257C38 85 139-11 270-11c117 0 241 78 241 257 0 65-18 120-50 160 61-3 93 33 93 87 0 28-7 52-17 73M276-80c-29 0-52-23-52-51s22-52 50-52c30 0 51 24 51 52s-22 51-49 51" horiz-adv-x="553" unicode="ợ"/><glyph d="M75 674V277C75 68 179-11 317-11c146 0 255 85 255 292v393h-88V275c0-149-64-215-164-215-90 0-157 64-157 215v399m161-855c28 0 49 25 49 51s-21 50-48 50c-29 0-51-24-51-50s22-51 49-51z" horiz-adv-x="647" unicode="Ụ"/><glyph d="M478 484h-88V187c0-16-3-32-8-45-16-39-57-80-116-80-80 0-108 62-108 154v268H70V201C70 31 161-11 237-11c86 0 137 51 160 90h2l5-79h78c-3 38-4 82-4 132M276-80c-29 0-52-23-52-51s22-52 50-52c30 0 51 24 51 52s-22 51-49 51" horiz-adv-x="551" unicode="ụ"/><glyph d="M75 674V277C75 68 179-11 317-11c146 0 255 85 255 292v393h-88V275c0-149-64-215-164-215-90 0-157 64-157 215v399m185 35c26 46 71 57 71 108 0 41-37 72-83 72-51 0-81-31-99-67l34-20c11 17 28 35 49 35 20 0 33-12 33-31 0-33-36-41-52-84z" horiz-adv-x="647" unicode="Ủ"/><glyph d="M478 484h-88V187c0-16-3-32-8-45-16-39-57-80-116-80-80 0-108 62-108 154v268H70V201C70 31 161-11 237-11c86 0 137 51 160 90h2l5-79h78c-3 38-4 82-4 132M290 530c23 46 75 61 75 117 0 44-37 75-84 75-50 0-80-31-98-67l34-20c12 18 27 35 49 35 18 0 33-13 33-34 0-37-44-50-56-94z" horiz-adv-x="551" unicode="ủ"/><glyph d="M593 770c10-18 16-39 16-58 0-26-12-38-46-38h-79V275c0-149-64-215-164-215-90 0-157 64-157 215v399H75V277C75 68 179-11 317-11c146 0 255 85 255 292v340l15 1c60 2 90 36 90 85 0 28-7 53-17 75m-293 45-93-117h72l127 117z" horiz-adv-x="677" unicode="Ứ"/><glyph d="M489 581c10-18 17-39 17-58 0-25-12-39-47-39h-69V187c0-16-3-32-8-45-16-39-57-80-116-80-80 0-108 62-108 154v268H70V201C70 31 161-11 237-11c86 0 137 51 160 90h2l5-79h78c-3 38-4 82-4 132v303l11 1c49 2 85 34 85 84 0 27-7 52-18 72M331 693l-88-143h63l122 143z" horiz-adv-x="551" unicode="ứ"/><glyph d="M593 770c10-18 16-39 16-58 0-26-12-38-46-38h-79V275c0-149-64-215-164-215-90 0-157 64-157 215v399H75V277C75 68 179-11 317-11c146 0 255 85 255 292v340l15 1c60 2 90 36 90 85 0 28-7 53-17 75m-477 45 127-116h72l-93 116z" horiz-adv-x="677" unicode="Ừ"/><glyph d="M489 581c10-18 17-39 17-58 0-25-12-39-47-39h-69V187c0-16-3-32-8-45-16-39-57-80-116-80-80 0-108 62-108 154v268H70V201C70 31 161-11 237-11c86 0 137 51 160 90h2l5-79h78c-3 38-4 82-4 132v303l11 1c49 2 85 34 85 84 0 27-7 52-18 72M145 693l122-143h62l-87 143z" horiz-adv-x="551" unicode="ừ"/><glyph d="M593 770c10-18 16-39 16-58 0-26-12-38-46-38h-79V275c0-149-64-215-164-215-90 0-157 64-157 215v399H75V277C75 68 179-11 317-11c146 0 255 85 255 292v340l15 1c60 2 90 36 90 85 0 28-7 53-17 75m-297-73c26 46 71 57 71 108 0 41-37 72-83 72-51 0-81-31-99-67l34-20c11 17 28 35 49 35 20 0 33-12 33-31 0-33-36-41-52-84z" horiz-adv-x="677" unicode="Ử"/><glyph d="M489 581c10-18 17-39 17-58 0-25-12-39-47-39h-69V187c0-16-3-32-8-45-16-39-57-80-116-80-80 0-108 62-108 154v268H70V201C70 31 161-11 237-11c86 0 137 51 160 90h2l5-79h78c-3 38-4 82-4 132v303l11 1c49 2 85 34 85 84 0 27-7 52-18 72m-258-62c23 46 75 61 75 117 0 44-37 75-84 75-50 0-80-31-98-67l34-20c12 18 27 35 49 35 18 0 33-13 33-34 0-37-44-50-56-94z" horiz-adv-x="551" unicode="ử"/><glyph d="M593 770c10-18 16-39 16-58 0-26-12-38-46-38h-79V275c0-149-64-215-164-215-90 0-157 64-157 215v399H75V277C75 68 179-11 317-11c146 0 255 85 255 292v340l15 1c60 2 90 36 90 85 0 28-7 53-17 75m-399-67c2 27 10 44 26 44 14 0 28-9 47-19 22-11 40-19 61-19 46 0 68 34 67 97h-46c-3-32-12-39-27-39-16 0-32 9-48 18-21 11-37 20-59 20-44 0-70-41-68-102z" horiz-adv-x="677" unicode="Ữ"/><glyph d="M489 581c10-18 17-39 17-58 0-25-12-39-47-39h-69V187c0-16-3-32-8-45-16-39-57-80-116-80-80 0-108 62-108 154v268H70V201C70 31 161-11 237-11c86 0 137 51 160 90h2l5-79h78c-3 38-4 82-4 132v303l11 1c49 2 85 34 85 84 0 27-7 52-18 72m-355-25c2 28 10 45 26 45 12 0 23-6 43-18 21-11 40-20 61-20 47 0 70 34 69 101h-47c-2-34-12-43-28-43-12 0-26 8-42 17-23 13-40 22-62 22-43 0-70-39-68-104z" horiz-adv-x="551" unicode="ữ"/><glyph d="M593 770c10-18 16-39 16-58 0-26-12-38-46-38h-79V275c0-149-64-215-164-215-90 0-157 64-157 215v399H75V277C75 68 179-11 317-11c146 0 255 85 255 292v340l15 1c60 2 90 36 90 85 0 28-7 53-17 75M339-80c-29 0-52-23-52-51s22-52 50-52c30 0 51 24 51 52s-22 51-49 51" horiz-adv-x="677" unicode="Ự"/><glyph d="M489 581c10-18 17-39 17-58 0-25-12-39-47-39h-69V187c0-16-3-32-8-45-16-39-57-80-116-80-80 0-108 62-108 154v268H70V201C70 31 161-11 237-11c86 0 137 51 160 90h2l5-79h78c-3 38-4 82-4 132v303l11 1c49 2 85 34 85 84 0 27-7 52-18 72M273-80c-29 0-52-23-52-51s22-52 50-52c30 0 51 24 51 52s-22 51-49 51" horiz-adv-x="551" unicode="ự"/><glyph d="M314 0v287l226 387h-99l-97-186c-26-51-49-95-68-139h-2c-21 47-41 88-67 139l-95 186H13l213-388V0m45-181c28 0 49 25 49 51s-21 50-48 50c-29 0-51-24-51-50s22-51 49-51z" horiz-adv-x="541" unicode="Ỵ"/><glyph d="M9 484 188 38c4-11 6-18 6-23s-3-12-7-21c-20-45-50-79-74-98-26-22-55-36-77-43l22-74c22 4 65 19 108 57 60 52 103 137 166 303l132 345h-93l-96-284c-12-35-22-72-31-101h-2c-8 29-20 67-31 99L105 484M327-80c-29 0-52-23-52-51s22-52 50-52c30 0 51 24 51 52s-22 51-49 51" horiz-adv-x="471" unicode="ỵ"/><glyph d="M314 0v287l226 387h-99l-97-186c-26-51-49-95-68-139h-2c-21 47-41 88-67 139l-95 186H13l213-388V0m69 709c26 46 71 57 71 108 0 41-37 72-83 72-51 0-81-31-99-67l34-20c11 17 28 35 49 35 20 0 33-12 33-31 0-33-36-41-52-84z" horiz-adv-x="541" unicode="Ỷ"/><glyph d="M9 484 188 38c4-11 6-18 6-23s-3-12-7-21c-20-45-50-79-74-98-26-22-55-36-77-43l22-74c22 4 65 19 108 57 60 52 103 137 166 303l132 345h-93l-96-284c-12-35-22-72-31-101h-2c-8 29-20 67-31 99L105 484m154 46c23 46 75 61 75 117 0 44-37 75-84 75-50 0-80-31-98-67l34-20c12 18 27 35 49 35 18 0 33-13 33-34 0-37-44-50-56-94z" horiz-adv-x="471" unicode="ỷ"/><glyph d="M314 0v287l226 387h-99l-97-186c-26-51-49-95-68-139h-2c-21 47-41 88-67 139l-95 186H13l213-388V0m-32 715c2 27 10 44 26 44 14 0 28-9 47-19 22-11 40-19 61-19 46 0 68 34 67 97h-46c-3-32-12-39-27-39-16 0-32 9-48 18-21 11-37 20-59 20-44 0-70-41-68-102z" horiz-adv-x="541" unicode="Ỹ"/><glyph d="M166 567c2 28 10 45 26 45 12 0 23-6 43-18 21-11 40-20 61-20 47 0 70 34 69 101h-47c-2-34-12-43-28-43-12 0-26 8-42 17-23 13-40 22-62 22-43 0-70-39-68-104M9 484 188 38c4-11 6-18 6-23s-3-12-7-21c-20-45-50-79-74-98-26-22-55-36-77-43l22-74c22 4 65 19 108 57 60 52 103 137 166 303l132 345h-93l-96-284c-12-35-22-72-31-101h-2c-8 29-20 67-31 99L105 484z" horiz-adv-x="471" unicode="ỹ"/><glyph d="m-101-11 380 672h-57L-157-11z" horiz-adv-x="121" unicode="∕"/><glyph d="M103 200c36 0 60 27 60 63-1 37-24 63-59 63s-60-27-60-63c-1-36 24-63 58-63z" horiz-adv-x="207" unicode="∙"/><glyph d="M478 484h-88V187c0-16-3-32-8-45-16-39-57-80-116-80-80 0-108 62-108 154v268H70V201C70 31 161-11 237-11c86 0 137 51 160 90h2l5-76c-18-27-48-74-48-123 0-56 38-86 93-86 26 0 60 7 81 23l-14 45c-11-5-26-9-45-9-29 0-51 19-51 52 0 36 26 77 42 98l20-3c-3 37-4 82-4 132z" horiz-adv-x="551" unicode="ų"/><glyph d="M360 484c11-25 32-107 32-197 0-139-44-225-128-225-53 0-110 37-110 134v197c0 53-5 80-14 91H56c9-27 11-79 11-163V184C67 52 151-11 257-11c175 0 221 164 221 306 0 80-19 157-36 189z" horiz-adv-x="524" unicode="υ"/><glyph d="M165 557c29 0 48 23 48 50 0 29-20 51-47 51-29 0-50-23-50-51 0-27 20-50 48-50m185 0c29 0 49 23 49 50 0 29-21 51-49 51s-49-23-49-51c0-27 19-50 48-50m12-73c11-25 32-107 32-197 0-139-44-225-128-225-53 0-110 37-110 134v197c0 53-5 80-14 91H56c9-27 11-79 11-163V184C67 52 151-11 257-11c175 0 221 164 221 306 0 80-19 157-36 189z" horiz-adv-x="524" unicode="ϋ"/><glyph d="M360 484c11-25 32-107 32-197 0-139-44-225-128-225-53 0-110 37-110 134v197c0 53-5 80-14 91H56c9-27 11-79 11-163V184C67 52 151-11 257-11c175 0 221 164 221 306 0 80-19 157-36 189M242 696l-21-157h47l49 157M141 560c26 0 44 22 44 47 0 26-19 46-44 46-26 0-47-21-47-46s19-47 46-47m242 0c28 0 46 22 46 47 0 26-19 46-45 46s-46-21-46-46 19-47 44-47z" horiz-adv-x="524" unicode="ΰ"/><glyph d="m272 687-53-143h59l83 143m-1-203c11-25 32-107 32-197 0-139-44-225-128-225-53 0-110 37-110 134v197c0 53-5 80-14 91H56c9-27 11-79 11-163V184C67 52 151-11 257-11c175 0 221 164 221 306 0 80-19 157-36 189z" horiz-adv-x="524" unicode="ύ"/><glyph d="M276 537c57 0 100 39 100 92s-39 94-99 94c-63 0-102-42-102-95 0-51 41-91 101-91m-1 37c-29 0-49 28-49 54 0 31 18 57 49 57 32 0 52-25 52-55s-20-56-52-56m203-90h-88V187c0-16-3-32-8-45-16-39-57-80-116-80-80 0-108 62-108 154v268H70V201C70 31 161-11 237-11c86 0 137 51 160 90h2l5-79h78c-3 38-4 82-4 132z" horiz-adv-x="551" unicode="ů"/><glyph d="M200 567c2 28 10 45 26 45 12 0 23-6 43-18 21-11 40-20 61-20 47 0 70 34 69 101h-47c-2-34-12-43-28-43-12 0-26 8-42 17-23 13-40 22-62 22-43 0-70-39-68-104m326-83h-88V187c0-16-3-32-8-45-16-39-57-80-116-80-80 0-108 62-108 154v268H70V201C70 31 161-11 237-11c86 0 137 51 160 90h2l5-79h78c-3 38-4 82-4 132z" horiz-adv-x="551" unicode="ũ"/><glyph d="M13 484 197 0h84l190 484h-92l-94-272c-16-44-30-84-41-124h-3c-10 40-23 80-39 124l-95 272z" horiz-adv-x="481" unicode="v"/><glyph d="M18 484 164 0h80l78 230c17 52 32 102 44 160h2c12-57 26-105 43-159L485 0h80l156 484h-87l-69-243c-16-57-29-108-37-157h-3c-11 49-25 100-43 158l-75 242h-74l-79-246c-16-53-32-105-43-154h-3c-9 50-22 100-36 154l-64 246z" horiz-adv-x="736" unicode="w"/><glyph d="m411 693-88-143h63l122 143M18 484 164 0h80l78 230c17 52 32 102 44 160h2c12-57 26-105 43-159L485 0h80l156 484h-87l-69-243c-16-57-29-108-37-157h-3c-11 49-25 100-43 158l-75 242h-74l-79-246c-16-53-32-105-43-154h-3c-9 50-22 100-36 154l-64 246z" horiz-adv-x="736" unicode="ẃ"/><glyph d="m337 693-94-143h65l58 95h2l58-95h68l-96 143M18 484 164 0h80l78 230c17 52 32 102 44 160h2c12-57 26-105 43-159L485 0h80l156 484h-87l-69-243c-16-57-29-108-37-157h-3c-11 49-25 100-43 158l-75 242h-74l-79-246c-16-53-32-105-43-154h-3c-9 50-22 100-36 154l-64 246z" horiz-adv-x="736" unicode="ŵ"/><glyph d="M276 570c29 0 49 24 49 51 0 29-21 51-49 51s-51-23-51-51c0-27 21-51 50-51m186 0c29 0 49 24 49 51 0 29-21 51-49 51s-50-23-50-51c0-27 20-51 49-51M18 484 164 0h80l78 230c17 52 32 102 44 160h2c12-57 26-105 43-159L485 0h80l156 484h-87l-69-243c-16-57-29-108-37-157h-3c-11 49-25 100-43 158l-75 242h-74l-79-246c-16-53-32-105-43-154h-3c-9 50-22 100-36 154l-64 246z" horiz-adv-x="736" unicode="ẅ"/><glyph d="m237 693 122-143h62l-87 143M18 484 164 0h80l78 230c17 52 32 102 44 160h2c12-57 26-105 43-159L485 0h80l156 484h-87l-69-243c-16-57-29-108-37-157h-3c-11 49-25 100-43 158l-75 242h-74l-79-246c-16-53-32-105-43-154h-3c-9 50-22 100-36 154l-64 246z" horiz-adv-x="736" unicode="ẁ"/><glyph d="m16 484 164-237L8 0h97l70 109c18 29 35 54 51 84h2c17-29 33-56 52-84L351 0h100L281 250l165 234h-95l-68-103c-16-26-32-51-48-80h-3c-16 27-31 52-49 79l-69 104z" horiz-adv-x="463" unicode="x"/><glyph d="M361 435h-48c-79 3-141 42-141 112 0 56 42 109 126 109 42 0 79-12 99-23l18 61c-27 16-69 27-122 27-140 0-209-85-209-168 0-66 37-118 111-141v-5c-87-24-157-98-157-195C38 43 208 3 341-16c-1-25-19-87-32-110l58-17c28 35 59 123 59 175 0 6-3 11-9 11-40 6-86 12-133 25-99 26-154 71-154 152 0 83 65 151 204 151h27z" horiz-adv-x="433" unicode="ξ"/><glyph d="M9 484 188 38c4-11 6-18 6-23s-3-12-7-21c-20-45-50-79-74-98-26-22-55-36-77-43l22-74c22 4 65 19 108 57 60 52 103 137 166 303l132 345h-93l-96-284c-12-35-22-72-31-101h-2c-8 29-20 67-31 99L105 484z" horiz-adv-x="471" unicode="y"/><glyph d="m285 693-88-143h63l122 143M9 484 188 38c4-11 6-18 6-23s-3-12-7-21c-20-45-50-79-74-98-26-22-55-36-77-43l22-74c22 4 65 19 108 57 60 52 103 137 166 303l132 345h-93l-96-284c-12-35-22-72-31-101h-2c-8 29-20 67-31 99L105 484z" horiz-adv-x="471" unicode="ý"/><glyph d="m207 693-94-143h65l58 95h2l58-95h68l-96 143M9 484 188 38c4-11 6-18 6-23s-3-12-7-21c-20-45-50-79-74-98-26-22-55-36-77-43l22-74c22 4 65 19 108 57 60 52 103 137 166 303l132 345h-93l-96-284c-12-35-22-72-31-101h-2c-8 29-20 67-31 99L105 484z" horiz-adv-x="471" unicode="ŷ"/><glyph d="M155 570c29 0 49 24 49 51 0 29-21 51-49 51s-51-23-51-51c0-27 21-51 50-51m186 0c29 0 49 24 49 51 0 29-21 51-49 51s-50-23-50-51c0-27 20-51 49-51M9 484 188 38c4-11 6-18 6-23s-3-12-7-21c-20-45-50-79-74-98-26-22-55-36-77-43l22-74c22 4 65 19 108 57 60 52 103 137 166 303l132 345h-93l-96-284c-12-35-22-72-31-101h-2c-8 29-20 67-31 99L105 484z" horiz-adv-x="471" unicode="ÿ"/><glyph d="M292 0v175h156v50H292v72h156v50H318l179 303h-92L297 446c-17-34-30-65-40-93h-3c-12 30-24 57-40 91L110 650H16l168-303H54v-50h155v-72H54v-50h155V0z" horiz-adv-x="513" unicode="¥"/><glyph d="M304 0v115h154v49H304v60h154v49H331l160 242h-91l-90-151c-16-29-31-56-42-81h-3c-10 24-23 48-39 79l-85 153H47l150-242H69v-49h153v-60H69v-49h153V0z" horiz-adv-x="530" unicode=""/><glyph d="m108 693 122-143h62l-87 143M9 484 188 38c4-11 6-18 6-23s-3-12-7-21c-20-45-50-79-74-98-26-22-55-36-77-43l22-74c22 4 65 19 108 57 60 52 103 137 166 303l132 345h-93l-96-284c-12-35-22-72-31-101h-2c-8 29-20 67-31 99L105 484z" horiz-adv-x="471" unicode="ỳ"/><glyph d="M18 0h393v70H128v2c22 25 42 49 62 76l216 281 1 55H38v-71h262v-2c-22-26-42-49-63-75L18 51z" horiz-adv-x="428" unicode="z"/><glyph d="m260 693-88-143h63l122 143M18 0h393v70H128v2c22 25 42 49 62 76l216 281 1 55H38v-71h262v-2c-22-26-42-49-63-75L18 51z" horiz-adv-x="428" unicode="ź"/><glyph d="m259 550 94 143h-66l-59-95h-2l-59 95H99l96-143M18 0h393v70H128v2c22 25 42 49 62 76l216 281 1 55H38v-71h262v-2c-22-26-42-49-63-75L18 51z" horiz-adv-x="428" unicode="ž"/><glyph d="M217 570c29 0 49 24 49 51 0 29-21 52-49 52-29 0-51-23-51-52 0-27 21-51 50-51M18 0h393v70H128v2c22 25 42 49 62 76l216 281 1 55H38v-71h262v-2c-22-26-42-49-63-75L18 51z" horiz-adv-x="428" unicode="ż"/><glyph d="M262 661C130 661 36 541 36 323c2-215 88-334 215-334 144 0 226 122 226 343 0 207-78 329-215 329m-5-68c91 0 132-105 132-265 0-166-43-271-133-271-80 0-132 96-132 265 0 177 56 271 133 271" horiz-adv-x="513" unicode="0"/><glyph d="M166-5c98 0 147 81 147 203 0 121-51 197-143 197-90 0-147-77-147-201S78-5 165-5m2 51c-45 0-74 54-74 151 0 93 30 147 75 147 50 0 75-54 75-147 0-95-26-151-75-151z" horiz-adv-x="336" unicode=""/><glyph d="M262 661C130 661 36 541 36 323c2-215 88-334 215-334 144 0 226 122 226 343 0 207-78 329-215 329m-5-68c91 0 132-105 132-265 0-166-43-271-133-271-80 0-132 96-132 265 0 177 56 271 133 271" horiz-adv-x="513" unicode=""/><glyph d="M166-152c98 0 147 81 147 203 0 121-51 197-143 197-90 0-147-77-147-201s55-199 142-199m2 51c-45 0-74 54-74 151 0 93 30 147 75 147 50 0 75-54 75-147 0-95-26-151-75-151z" horiz-adv-x="336" unicode="₀"/><glyph d="M166 261c98 0 147 81 147 203 0 121-51 197-143 197-90 0-147-77-147-201s55-199 142-199m2 51c-45 0-74 54-74 151 0 93 30 147 75 147 50 0 75-54 75-147 0-95-26-151-75-151z" horiz-adv-x="336" unicode=""/><glyph d="M265-11c125 0 225 95 225 254 0 161-101 253-225 253S40 400 40 243C40 81 141-11 264-11m1 67c-88 0-140 79-140 187 0 107 52 186 140 186s140-79 140-186c0-108-51-187-139-187z" horiz-adv-x="530" unicode=""/><glyph d="M146 168c-17 43-25 97-25 160 1 160 54 265 136 265 40 0 70-19 90-51m24-61c14-43 21-95 21-153 0-166-46-271-137-271-35 0-64 17-86 49m305 543-45 29-40-66c-33 33-76 49-127 49-132 0-227-119-226-338 0-104 21-186 57-242L46 7l44-31 37 63c35-34 78-50 125-50 143 0 225 122 225 343 0 100-18 181-53 238z" horiz-adv-x="513" unicode=""/><glyph d="M146 168c-17 43-25 97-25 160 1 160 54 265 136 265 40 0 70-19 90-51m24-61c14-43 21-95 21-153 0-166-46-271-137-271-35 0-64 17-86 49m305 543-45 29-40-66c-33 33-76 49-127 49-132 0-227-119-226-338 0-104 21-186 57-242L46 7l44-31 37 63c35-34 78-50 125-50 143 0 225 122 225 343 0 100-18 181-53 238z" horiz-adv-x="513" unicode=""/><glyph d="M166 438c98 0 147 81 147 203 0 121-51 197-143 197-90 0-147-77-147-201s55-199 142-199m2 51c-45 0-74 54-74 151 0 93 30 147 75 147 50 0 75-54 75-147 0-95-26-151-75-151z" horiz-adv-x="336" unicode="⁰"/><glyph d="M265-11c125 0 225 95 225 254 0 161-101 253-225 253S40 400 40 243C40 81 141-11 264-11m1 67c-88 0-140 79-140 187 0 107 52 186 140 186s140-79 140-186c0-108-51-187-139-187z" horiz-adv-x="530" unicode=""/><glyph d="M341-143c27 35 60 117 60 175 0 6-4 11-9 12-47 5-94 12-140 29-73 26-124 69-124 176 0 146 119 316 279 397l-13 62H227c-45 0-90 0-122 4l-9-59c30-9 71-10 116-10h71v-4C129 534 39 371 39 233c0-128 71-193 159-222 40-13 83-22 118-27-2-26-19-87-33-110z" horiz-adv-x="409" unicode="ζ"/></font>
</svg>
